.
Авторизация | Регистрация
Хочешь лучшие торренты? Добавь свой email!
Добавить

Торрент скачать бесплатно

» » Контрибуция (2016) WEB-DLRip торрент скачать бесплатно




    Контрибуция (2016) WEB-DLRip торрент скачать бесплатно

    Опубликовал: Админ | Дата: 6-09-2016, 04:00 | Просмотров: 40

    Производство: Россия, Ленфильм
    Жанр: Детектив, Военный
    Режиссер: Сергей Снежкин

    Актеры
    Максим Матвеев, Елизавета Боярская, Надежда Толубеева, Илья Носков, Евгений Дятлов, Константин Воробьёв, Артур Ваха, Юрий Ицков, Игорь Черневич, Сергей Перегудов

    Описание

    Действие происходит в 1918 году в Перми. Среднесибирский белогвардейский корпус под командованием молодого генерала Анатолия Николаевича Пепеляева захватывает город. Время пошло, сказал кто то из толпы, к чему не понятно. Армия измотана, не хватает патронов, обмундирования, провианта. Генерал приглашает пермских купцов с целью собрать деньги для нужд армии. Богатая вдова Чагина приносит в качестве контрибуции дорогой бриллиант. На следующий день бриллиант таинственным образом исчезает. На поиски привлекают приговоренного к смерти красного следователя Андрея Мурзина, который должен найти бриллиант в обмен на помилование.

    Возраст: 12+ (зрителям, достигшим 12 лет)
    Дата российской премьеры: 17 марта 2016, Ленфильм
    Релиз от: K.E.N(NNM-CLUB)
    Продолжительность: 02: 42: 15
    Качество видео: WEB-DLRip
    Видео: 720x304 (2.37: 1), 25 fps, XviD build 73 ~1088 kbps, 0.20 bit/pixel
    Аудио: 48 kHz, AC3, 2 ch, ~192 kbps
    Код:
    Формат : AVI
    Формат/Информация : Audio Video Interleave
    Размер файла : 1, 46 Гбайт
    Продолжительность : 2 ч. 42 м.
    Общий поток : 1291 Кбит/сек
    Программа кодирования : VirtualDubMod 1.5.10.3 |www.virtualdub-fr.org|| (build 2550/release)
    Библиотека кодирования : VirtualDubMod build 2550/release
    Видео
    Идентификатор : 0
    Формат : MPEG-4 Visual
    Профиль формата : Advanced Simple@L5
    Параметр BVOP формата : 1
    Параметр QPel формата : Нет
    Параметр GMC формата : Без точки перехода
    Параметр матрицы формата : Выборочная
    Идентификатор кодека : XVID
    Идентификатор кодека/Подсказка : XviD
    Продолжительность : 2 ч. 42 м.
    Битрейт : 1089 Кбит/сек
    Ширина : 720 пикселей
    Высота : 304 пикселя
    Соотношение сторон : 2, 35:1
    Частота кадров : 25, 000 кадров/сек
    Цветовое пространство : YUV
    Субдискретизация насыщенности : 4:2:0
    Битовая глубина : 8 бит
    Тип развёртки : Прогрессивная
    Метод сжатия : С потерями
    Бит/(Пиксели*Кадры) : 0.199
    Размер потока : 1, 23 Гбайт (84%)
    Библиотека кодирования : XviD 73
    Аудио
    Идентификатор : 1
    Формат : AC-3
    Формат/Информация : Audio Coding 3
    Расширение режима : CM (complete main)
    Параметр Endianness формата : Big
    Идентификатор кодека : 2000
    Продолжительность : 2 ч. 42 м.
    Вид битрейта : Постоянный
    Битрейт : 192 Кбит/сек
    Каналы : 2 канала
    Расположение каналов : Front: L R
    Частота : 48, 0 КГц
    Битовая глубина : 16 бит
    Метод сжатия : С потерями
    Размер потока : 223 Мбайт (15%)
    Выравнивание : Разделение по промежуткам
    Продолжительность промежутка : 40 мс. (1, 00 видеокадр)
    Время предзагрузки промежутка : 500 мс.


    Скриншоты для ознакомления




    Онлайн видео Контрибуция (2016) WEB



    Контрибуция (2016) WEB-DLRip
    загрузка...
    Рейтинг →
     (голосов: 1, оценка 5/5, голосовать можно 1 раз )

    Другие торренты по теме:

  • Контрибуция (2016) WEB-DLRip
  • Контрибуция (2016) WEB-DLRip (серии 1-4 из 4)


    • Комментарии (0):

      Информация

      Информация

        Посетители, находящиеся в группе Гости, не могут оставлять комментарии в данной новости.

        ↓ Меню




        ↓ Опрос

        Вы добавили сайт в закладки?
        Да
        Нет


        Top 10 за месяц (Фильмы)