.
Авторизация | Регистрация
Хочешь лучшие торренты? Добавь свой email!
Добавить

Торрент скачать бесплатно

» » Нарко / Нарки / Барыги / Narcos (2016) WEBRip [H.264 / 1080p] (сезон 2, серии 1 из 10) LostFilm (обновляемая) торрент скачать бесплатно




    Нарко / Нарки / Барыги / Narcos (2016) WEBRip [H.264 / 1080p] (сезон 2, серии 1 из 10) LostFilm (обновляемая) торрент скачать бесплатно

    Опубликовал: Админ | Дата: 6-09-2016, 04:00 | Просмотров: 42

    Производство: США/Dynamo, Gaumont International Television
    Жанр: криминал, драма
    Режиссер: Андрес Байс, Джозеф Владыка, Херардо Наранхо

    Актеры
    Вагнер Моура, Бойд Холбрук, Педро Паскаль, Джоанна Кристи, Морис Комт, Паулина Гайтан, Диего Катаньо, Даниэль Кеннеди, Ричард Т. Джонс и др.

    Описание

    Второй сезон любимого сериала сериала Нарко продолжит хронологически восстанавливать события жизни Пабло Эскобара. История ведется не только со стороны Эскобара, но и с точки зрения агентов специальных служб, которые непрерывно пытаются его обезвредить. Причем вопрос уже стоит не в попытках посадить наркобарона в тюрьму, а именно уничтожить его.

    Возраст: 18+ (зрителям, достигшим 18 лет)
    Продолжительность: ~00: 52: 00 серия
    Качество видео: WEBRip
    Перевод: Многоголосый закадровый, профессиональный -LostFilm
    Вид субтитров: вшитые неотключаемые (на испанскую речь)
    Язык субтитров: английский
    Видео: H.264/AVC, 1920x1080 (16: 9), ~10, 2 mbps
    Аудио Rus: AC-3, 48, 0 kHz, 2 ch, 384 kbps — многоголосый закадровый
    Аудио Eng: AC-3, 48, 0 kHz, 6 ch, 640 kbps — оригинал
    Код:

    Общее
    Уникальный идентификатор : 221573041803393280805258500547056062687 (0xA6B16A65460876399110FCC7BEF950DF)
    Полное имя : D:Нарко (сезон любимого сериала 2) Narcos (2016) WEBRip 1080p - LostFilmNarcos.S02E01.WEBRip1080p.Rus.Eng.DV.LostFilm.mkv
    Формат : Matroska
    Версия формата : Version 4/Version 2
    Размер файла : 4, 15 Гбайт
    Продолжительность : 52 м. Самое интересное в это истории, что об этом Уил Смит ничего не знал. 44 с.
    Общий поток : 11, 3 Мбит/сек
    Название фильма : Narcos.S02E01.WEBRip1080p.Rus.Eng.DV.LostFilm/NNM-Club
    Дата кодирования : UTC 2016-09-05 19:44:37
    Программа кодирования : mkvmerge v8.2.0 (\'World of Adventure\') 64bit
    Библиотека кодирования : libebml v1.3.1 + libmatroska v1.4.2
    Обложка : Yes
    Attachments : Cover
    Видео
    Идентификатор : 1
    Формат : AVC
    Формат/Информация : Advanced Video Codec
    Профиль формата :High@L4.1
    Параметр CABAC формата : Да
    Параметр ReFrames формата : 4 кадра
    Идентификатор кодека : V_MPEG4/ISO/AVC
    Продолжительность : 52 м. Прикольно все это наверно придумал Уил Смит потратив достаточно времени. 44 с.
    Битрейт : 10, 2 Мбит/сек
    Ширина : 1920 пикселей
    Высота : 1080 пикселей
    Соотношение сторон : 16:9
    Режим частоты кадров : Постоянный
    Частота кадров : 23, 976 (24000/1001) кадра/сек
    Цветовое пространство : YUV
    Субдискретизация насыщенности : 4:2:0
    Битовая глубина : 8 бит
    Тип развёртки : Прогрессивная
    Бит/(Пиксели*Кадры) : 0.206
    Размер потока : 3, 77 Гбайт (91%)
    Библиотека кодирования : x264 core 148 r2705kMod 3f5ed56
    Настройки программы : cabac=1/ref=4/deblock=1:-1:-1/analyse=0x3:0x113/me=umh/subme=9/psy=1/fade_compensate=0.00/psy_rd=1.00:0.00/mixed_ref=1/me_range=16/chroma_me=1/trellis=1/8x8dct=1/cqm=0/deadzone=21, 11/fast_pskip=1/chroma_qp_offset=-2/threads=18/lookahead_threads=1/sliced_threads=0/nr=0/decimate=1/interlaced=0/bluray_compat=0/constrained_intra=0/fgo=0/bframes=3/b_pyramid=2/b_adapt=2/b_bias=0/direct=3/weightb=1/open_gop=0/weightp=2/keyint=240/keyint_min=23/scenecut=40/intra_refresh=0/rc_lookahead=50/rc=crf/mbtree=1/crf=17.0000/qcomp=0.60/qpmin=0/qpmax=69/qpstep=4/vbv_maxrate=62500/vbv_bufsize=78125/crf_max=0.0/nal_hrd=none/filler=0/ip_ratio=1.40/aq=1:1.00
    Язык : English
    Default : Да
    Forced : Нет
    Аудио #1
    Идентификатор : 2
    Формат : AC-3
    Формат/Информация : Audio Coding 3
    Расширение режима : CM (complete main)
    Параметр Endianness формата : Big
    Идентификатор кодека : A_AC3
    Продолжительность : 52 м. 44 с.
    Вид битрейта : Постоянный
    Битрейт : 384 Кбит/сек
    Каналы : 2 канала
    Расположение каналов : Front: L R
    Частота : 48, 0 КГц
    Частота кадров : 31, 250 кадров/сек (1536 spf)
    Метод сжатия : С потерями
    Размер потока : 145 Мбайт (3%)
    Заголовок : LostFilm
    Язык : Russian
    Default : Да
    Forced : Нет
    Аудио #2
    Идентификатор : 3
    Формат : AC-3
    Формат/Информация : Audio Coding 3
    Расширение режима : CM (complete main)
    Параметр Endianness формата : Big
    Идентификатор кодека : A_AC3
    Продолжительность : 52 м. 44 с.
    Вид битрейта : Постоянный
    Битрейт : 640 Кбит/сек
    Каналы : 6 каналов
    Расположение каналов : Front: L C R, Side: L R, LFE
    Частота : 48, 0 КГц
    Частота кадров : 31, 250 кадров/сек (1536 spf)
    Метод сжатия : С потерями
    Размер потока : 241 Мбайт (6%)
    Язык : English
    Default : Нет
    Forced : Нет


    Скриншоты для ознакомления




    Онлайн видео Нарко



    Нарко/Нарки/Барыги/Narcos (2016) WEBRip [H.264/1080p] (сезон 2, серии 1 из 10) LostFilm (обновляемая)
    загрузка...
    Рейтинг →
     (голосов: 1, оценка 4/5, голосовать можно 1 раз )

    Другие торренты по теме:

  • Нарко / Нарки / Барыги / Narcos (2016) WEBRip (сезон 2, серии 1 из 10) LostFilm (обновляемая)
  • Нарко / Нарки / Барыги / Narcos (2016) WEBRip [H.264 / 720p-LQ] (сезон 2, серии 1-10 из 10) Jetvis Studio
  • Нарко / Нарки / Барыги / Narcos (2016) WEBRip (сезон 2, серии 1-10 из 10) NewStudio
  • Нарко / Нарки / Барыги / Narcos (2016) WEBRip [H.264 / 720p-LQ] (сезон 2, серии 1-10 из 10) NewStudio
  • Нарко / Нарки / Барыги / Narcos (2015-2016) WEBRip [H.264] (сезон 1-2, серии 1-20 из 20) LostFilm [MP4|1280x720] [AD]
  • Нарко / Нарки / Барыги / Narcos (2017) WEBRip [H.264] (сезон 3, серии 1-4 из 10) Baibako (обновляемая)
  • Нарко / Нарки / Барыги / Narcos (2017) WEBRip [H.264 / 1080p-LQ] (сезон 3, серии 1-10 из 10) NewStudio
  • Нарко / Нарки / Барыги / Narcos (2017) WEBRip [H.264 / 720p-LQ] (сезон 3, серии 1-10 из 10) NewStudio


    • Комментарии (0):

      Информация

      Информация

        Посетители, находящиеся в группе Гости, не могут оставлять комментарии в данной новости.

        ↓ Меню




        ↓ Опрос

        Вы добавили сайт в закладки?
        Да
        Нет


        Top 10 за месяц (Фильмы)