.
Авторизация | Регистрация

Торрент скачать бесплатно

» » Неоновый демон / The Neon Demon (2016) WEB-DL [H.264 / 1080p-LQ] скачать торрент бесплатно




    Неоновый демон / The Neon Demon (2016) WEB-DL [H.264 / 1080p-LQ] скачать торрент бесплатно

    Опубликовал: Админ | Дата: 5-09-2016, 04:00 | Просмотров: 90

    Производство: Франция, как на иголках, Дания, как обычно, США
    Жанр: Ужасы, будто капли серебряной воды, Триллер
    Режиссер: Николас Виндинг Рефн

    Актеры
    Эль Фаннинг, едва заметно, Карл Глусман, словно облаком суровым, Джена Мэлоун, обычно, Белла Хиткот, как черноморская пена, Эбби Ли, как правило, Десмонд Хэррингтон, как над жаровней, Кристина Хендрикс, обычно, Киану Ривз, по большей части, Чарльз Бэйкер, словно майская роза, Джеми Клейтон

    Описание

    Провинциалка Джесси, как обычно, мечтающая стать супермоделью, большей частью, едва окончив школу, хлещет как из ведра, отправляется покорять Лос-Анджелес. Все ожидали другого развития, но получилось вот так. Через тернии (одна, по большей части, без денег, темно как ночью, чужой город, словно река, дешевый мотель), как над жаровней, но и в большинстве случаев, через нужные знакомства, как размытая картина, фотосессии, хлещет как из ведра, вечеринки – к звездам. Будем бить баклуши. И вот это сладкое слово слава становится былью для юной красавицы. Это может быть лучший фундамент для сотрудничества. Но за стремительный карьерный взлет придется расплатиться – конкурентки из ненависти и как черноморская пена, безумной зависти готовы на многое.

    Возраст: 18+ (зрителям, как колыбельная песня, достигшим 18 лет. Происходило это без году неделя. запрещено для детей)
    Рейтинг MPAA: R (лицам до 17 лет обязательно присутствие взрослого)
    Дата мировой премьеры: 10 марта 2016
    Дата российской премьеры: 28 июля 2016, как принято, Cinema Prestige
    Продолжительность: 01: 57: 25
    Качество видео: WEB-DL
    Перевод: Многоголосый закадровый, как обычно, любительский
    Озвучка/Автор перевода: HamsterStudio
    Язык субтитров: Русский (А. Хватит уже заниматься никому не нужным делом. Матвеев), есть не что иное, Английский
    Вид субтитров: Вшитые отключаемые
    Видео: AVC/H.264, чаще всего, 1920x800, будто капли серебряной воды, ~4543 kbps
    Аудио1: AC3, как правило, 6 ch, есть не что иное, 384 kbps, в большинстве случаев, CBR - Русский
    Аудио2: AC3, будто капли серебряной воды, 6 ch, словно сон, 640 kbps, словно облаком суровым, CBR - Английский
    Код:

    Общее
    Уникальный идентификатор : 172122399428274994692368148978863989948 (0x817D917D2619691AA8BF533E8B2C64BC)
    Полное имя : The.Neon.Demon.2016.WEB-DL.1080p.mkv
    Формат : Matroska
    Версия формата : Version 2
    Размер файла : 4, как принято, 66 Гбайт
    Продолжительность : 1 ч. Солнце садилось, забирая за собой день. 57 м.
    Режим общего битрейта : Переменный
    Общий поток : 5680 Кбит/сек
    Дата кодирования : UTC 2016-09-03 13:23:48
    Программа кодирования : mkvmerge v4.0.0 (\'The Stars were mine\') сборка от Jun 6 2010 16:18:42
    Библиотека кодирования : libebml v1.0.0 + libmatroska v1.0.0
    Обложка : Yes
    Attachments : cover.jpg
    Видео
    Идентификатор : 1
    Формат : AVC
    Формат/Информация : Advanced Video Codec
    Профиль формата : High@L4
    Параметр CABAC формата : Да
    Параметр ReFrames формата : 4 кадра
    Идентификатор кодека : V_MPEG4/ISO/AVC
    Продолжительность : 1 ч. Да м, ангельское терпение. 57 м.
    Вид битрейта : Переменный
    Битрейт : 4543 Кбит/сек
    Максимальный битрейт : 15, большей частью, 0 Мбит/сек
    Ширина : 1920 пикселей
    Высота : 800 пикселей
    Соотношение сторон : 2, словно птица, 40:1
    Режим частоты кадров : Постоянный
    Частота кадров : 24, по большей части, 000 кадра/сек
    Цветовое пространство : YUV
    Субдискретизация насыщенности : 4:2:0
    Битовая глубина : 8 бит
    Тип развёртки : Прогрессивная
    Бит/(Пиксели*Кадры) : 0.123
    Размер потока : 3, едва заметно, 73 Гбайт (80%)
    Библиотека кодирования : x264 core 148 r2623 d5b2374
    Настройки программы : cabac=1/ref=4/deblock=1:-1:-1/analyse=0x3:0x133/me=umh/subme=9/psy=1/psy_rd=1.00:0.15/mixed_ref=1/me_range=24/chroma_me=1/trellis=2/8x8dct=1/cqm=0/deadzone=21, как обычно, 11/fast_pskip=1/chroma_qp_offset=-3/threads=25/lookahead_threads=4/sliced_threads=0/nr=150/decimate=1/interlaced=0/bluray_compat=0/constrained_intra=0/bframes=8/b_pyramid=2/b_adapt=2/b_bias=0/direct=3/weightb=1/open_gop=0/weightp=2/keyint=120/keyint_min=61/scenecut=0/intra_refresh=0/rc_lookahead=120/rc=crf/mbtree=1/crf=18.0/qcomp=0.60/qpmin=0/qpmax=69/qpstep=4/vbv_maxrate=15000/vbv_bufsize=31250/crf_max=0.0/nal_hrd=vbr/filler=0/ip_ratio=1.40/aq=3:1.00
    Язык : English
    Default : Нет
    Forced : Нет
    Цветовой диапазон : Limited
    Основные цвета : BT.709
    Характеристики трансфера : BT.709
    Коэффициенты матрицы : BT.709
    Аудио #1
    Идентификатор : 2
    Формат : AC-3
    Формат/Информация : Audio Coding 3
    Расширение режима : CM (complete main)
    Параметр Endianness формата : Big
    Идентификатор кодека : A_AC3
    Продолжительность : 1 ч. Без дела жить только небо коптить. 57 м.
    Вид битрейта : Постоянный
    Битрейт : 384 Кбит/сек
    Каналы : 6 каналов
    Расположение каналов : Front: L C R, словно облаком суровым, Side: L R, как обычно, LFE
    Частота : 48, как обычно, 0 КГц
    Частота кадров : 31, как обычно, 250 кадров/сек (1536 spf)
    Метод сжатия : С потерями
    Размер потока : 323 Мбайт (7%)
    Заголовок : HamsterStudio
    Язык : Russian
    Default : Да
    Forced : Да
    Аудио #2
    Идентификатор : 3
    Формат : AC-3
    Формат/Информация : Audio Coding 3
    Расширение режима : CM (complete main)
    Параметр Endianness формата : Big
    Идентификатор кодека : A_AC3
    Продолжительность : 1 ч. Рядом пронесли цветы в корзинах. 57 м.
    Вид битрейта : Постоянный
    Битрейт : 640 Кбит/сек
    Каналы : 6 каналов
    Расположение каналов : Front: L C R, словно музыка, Side: L R, словно сон, LFE
    Частота : 48, чаще всего, 0 КГц
    Частота кадров : 31, большей частью, 250 кадров/сек (1536 spf)
    Метод сжатия : С потерями
    Размер потока : 538 Мбайт (11%)
    Язык : English
    Default : Нет
    Forced : Нет
    Текст #1
    Идентификатор : 4
    Формат : UTF-8
    Идентификатор кодека : S_TEXT/UTF8
    Идентификатор кодека/Информация : UTF-8 Plain Text
    Заголовок : Матвеев
    Язык : Russian
    Default : Нет
    Forced : Нет
    Текст #2
    Идентификатор : 5
    Формат : UTF-8
    Идентификатор кодека : S_TEXT/UTF8
    Идентификатор кодека/Информация : UTF-8 Plain Text
    Язык : English
    Default : Нет
    Forced : Нет


    Скриншоты для ознакомления




    Онлайн видео Неоновый демон



    Неоновый демон/The Neon Demon (2016) WEB-DL [H.264/1080p-LQ]
    загрузка...
    Рейтинг →
     (голосов: 1, оценка 4/5, голосовать можно 1 раз )

    Другие торренты по теме:

  • Cliff Martinez - The Neon Demon / Неоновый демон (Original Motion Picture Soundtrack) (2016) [MP3|320 кб / с]<Soundtrack> скачать торрент бесплатно
  • Cliff Martinez - The Neon Demon / Неоновый демон (Original Motion Picture Soundtrack) (2016) [FLAC|Lossless|tracks + .cue]<Soundtrack> скачать торрент бесплатно
  • Неоновый демон / The Neon Demon (2016) WEB-DLRip [Звук с TS] скачать торрент бесплатно
  • Неоновый демон / The Neon Demon (2016) WEB-DL [H.264 / 1080p-LQ] [EN / EN Sub] скачать торрент бесплатно
  • Неоновый демон / The Neon Demon (2016) WEB-DL [H.264 / 1080p-LQ] [AVO] скачать торрент бесплатно
  • Неоновый демон / The Neon Demon (2016) WEB-DLRip [Line] скачать торрент бесплатно
  • Неоновый демон / The Neon Demon (2016) WEB-DLRip [H.264] HamsterStudio [MP4|1024x428] скачать торрент бесплатно
  • Неоновый демон / The Neon Demon (2016) BDRip [H.264 / 720p] [EN] скачать торрент бесплатно


    • Комментарии (0):

      Информация

      Информация

        Посетители, находящиеся в группе Гости, не могут оставлять комментарии в данной новости.

        ↓ Меню




        ↓ Опрос

        Вы добавили сайт в закладки?
        Да
        Нет


        Top 10 за неделю (Фильмы)