.
Авторизация | Регистрация
Хочешь лучшие торренты? Добавь свой email!
Добавить

Торрент скачать бесплатно

» » Неоновый демон / The Neon Demon (2016) WEB-DL [H.264 / 1080p-LQ] торрент скачать бесплатно




    Неоновый демон / The Neon Demon (2016) WEB-DL [H.264 / 1080p-LQ] торрент скачать бесплатно

    Опубликовал: Админ | Дата: 5-09-2016, 04:00 | Просмотров: 90

    Производство: Франция, Дания, США
    Жанр: Ужасы, Триллер
    Режиссер: Николас Виндинг Рефн

    Актеры
    Эль Фаннинг, Карл Глусман, Джена Мэлоун, Белла Хиткот, Эбби Ли, Десмонд Хэррингтон, Кристина Хендрикс, Киану Ривз, Чарльз Бэйкер, Джеми Клейтон

    Описание

    Провинциалка Джесси, мечтающая стать супермоделью, едва окончив школу, отправляется покорять Лос-Анджелес. Через тернии (одна, без денег, чужой город, дешевый мотель), но и через нужные знакомства, фотосессии, вечеринки – к звездам. И вот это сладкое слово слава становится былью для юной красавицы. Но за стремительный карьерный взлет придется расплатиться – конкурентки из ненависти и безумной зависти готовы на многое.

    Возраст: 18+ (зрителям, достигшим 18 лет. запрещено для детей)
    Рейтинг MPAA: R (лицам до 17 лет обязательно присутствие взрослого)
    Дата мировой премьеры: 10 марта 2016
    Дата российской премьеры: 28 июля 2016, Cinema Prestige
    Продолжительность: 01: 57: 25
    Качество видео: WEB-DL
    Перевод: Многоголосый закадровый, любительский
    Озвучка/Автор перевода: HamsterStudio
    Язык субтитров: Русский (А. Матвеев), Английский
    Вид субтитров: Вшитые отключаемые
    Видео: AVC/H.264, 1920x800, ~4543 kbps
    Аудио1: AC3, 6 ch, 384 kbps, CBR - Русский
    Аудио2: AC3, 6 ch, 640 kbps, CBR - Английский
    Код:

    Общее
    Уникальный идентификатор : 172122399428274994692368148978863989948 (0x817D917D2619691AA8BF533E8B2C64BC)
    Полное имя : The.Neon.Demon.2016.WEB-DL.1080p.mkv
    Формат : Matroska
    Версия формата : Version 2
    Размер файла : 4, 66 Гбайт
    Продолжительность : 1 ч. 57 м.
    Режим общего битрейта : Переменный
    Общий поток : 5680 Кбит/сек
    Дата кодирования : UTC 2016-09-03 13:23:48
    Программа кодирования : mkvmerge v4.0.0 (\'The Stars were mine\') сборка от Jun 6 2010 16:18:42
    Библиотека кодирования : libebml v1.0.0 + libmatroska v1.0.0
    Обложка : Yes
    Attachments : cover.jpg
    Видео
    Идентификатор : 1
    Формат : AVC
    Формат/Информация : Advanced Video Codec
    Профиль формата : High@L4
    Параметр CABAC формата : Да
    Параметр ReFrames формата : 4 кадра
    Идентификатор кодека : V_MPEG4/ISO/AVC
    Продолжительность : 1 ч. 57 м.
    Вид битрейта : Переменный
    Битрейт : 4543 Кбит/сек
    Максимальный битрейт : 15, 0 Мбит/сек
    Ширина : 1920 пикселей
    Высота : 800 пикселей
    Соотношение сторон : 2, 40:1
    Режим частоты кадров : Постоянный
    Частота кадров : 24, 000 кадра/сек
    Цветовое пространство : YUV
    Субдискретизация насыщенности : 4:2:0
    Битовая глубина : 8 бит
    Тип развёртки : Прогрессивная
    Бит/(Пиксели*Кадры) : 0.123
    Размер потока : 3, 73 Гбайт (80%)
    Библиотека кодирования : x264 core 148 r2623 d5b2374
    Настройки программы : cabac=1/ref=4/deblock=1:-1:-1/analyse=0x3:0x133/me=umh/subme=9/psy=1/psy_rd=1.00:0.15/mixed_ref=1/me_range=24/chroma_me=1/trellis=2/8x8dct=1/cqm=0/deadzone=21, 11/fast_pskip=1/chroma_qp_offset=-3/threads=25/lookahead_threads=4/sliced_threads=0/nr=150/decimate=1/interlaced=0/bluray_compat=0/constrained_intra=0/bframes=8/b_pyramid=2/b_adapt=2/b_bias=0/direct=3/weightb=1/open_gop=0/weightp=2/keyint=120/keyint_min=61/scenecut=0/intra_refresh=0/rc_lookahead=120/rc=crf/mbtree=1/crf=18.0/qcomp=0.60/qpmin=0/qpmax=69/qpstep=4/vbv_maxrate=15000/vbv_bufsize=31250/crf_max=0.0/nal_hrd=vbr/filler=0/ip_ratio=1.40/aq=3:1.00
    Язык : English
    Default : Нет
    Forced : Нет
    Цветовой диапазон : Limited
    Основные цвета : BT.709
    Характеристики трансфера : BT.709
    Коэффициенты матрицы : BT.709
    Аудио #1
    Идентификатор : 2
    Формат : AC-3
    Формат/Информация : Audio Coding 3
    Расширение режима : CM (complete main)
    Параметр Endianness формата : Big
    Идентификатор кодека : A_AC3
    Продолжительность : 1 ч. 57 м.
    Вид битрейта : Постоянный
    Битрейт : 384 Кбит/сек
    Каналы : 6 каналов
    Расположение каналов : Front: L C R, Side: L R, LFE
    Частота : 48, 0 КГц
    Частота кадров : 31, 250 кадров/сек (1536 spf)
    Метод сжатия : С потерями
    Размер потока : 323 Мбайт (7%)
    Заголовок : HamsterStudio
    Язык : Russian
    Default : Да
    Forced : Да
    Аудио #2
    Идентификатор : 3
    Формат : AC-3
    Формат/Информация : Audio Coding 3
    Расширение режима : CM (complete main)
    Параметр Endianness формата : Big
    Идентификатор кодека : A_AC3
    Продолжительность : 1 ч. 57 м.
    Вид битрейта : Постоянный
    Битрейт : 640 Кбит/сек
    Каналы : 6 каналов
    Расположение каналов : Front: L C R, Side: L R, LFE
    Частота : 48, 0 КГц
    Частота кадров : 31, 250 кадров/сек (1536 spf)
    Метод сжатия : С потерями
    Размер потока : 538 Мбайт (11%)
    Язык : English
    Default : Нет
    Forced : Нет
    Текст #1
    Идентификатор : 4
    Формат : UTF-8
    Идентификатор кодека : S_TEXT/UTF8
    Идентификатор кодека/Информация : UTF-8 Plain Text
    Заголовок : Матвеев
    Язык : Russian
    Default : Нет
    Forced : Нет
    Текст #2
    Идентификатор : 5
    Формат : UTF-8
    Идентификатор кодека : S_TEXT/UTF8
    Идентификатор кодека/Информация : UTF-8 Plain Text
    Язык : English
    Default : Нет
    Forced : Нет


    Скриншоты для ознакомления




    Онлайн видео Неоновый демон



    Неоновый демон/The Neon Demon (2016) WEB-DL [H.264/1080p-LQ]
    загрузка...
    Рейтинг →
     (голосов: 1, оценка 5/5, голосовать можно 1 раз )

    Другие торренты по теме:

  • Cliff Martinez - The Neon Demon / Неоновый демон (Original Motion Picture Soundtrack) (2016) [MP3|320 кб / с]<Soundtrack>
  • Cliff Martinez - The Neon Demon / Неоновый демон (Original Motion Picture Soundtrack) (2016) [FLAC|Lossless|tracks + .cue]<Soundtrack>
  • Неоновый демон / The Neon Demon (2016) WEB-DLRip [Звук с TS]
  • Неоновый демон / The Neon Demon (2016) WEB-DL [H.264 / 1080p-LQ] [EN / EN Sub]
  • Неоновый демон / The Neon Demon (2016) WEB-DL [H.264 / 1080p-LQ] [AVO]
  • Неоновый демон / The Neon Demon (2016) WEB-DLRip [Line]
  • Неоновый демон / The Neon Demon (2016) WEB-DLRip [H.264] HamsterStudio [MP4|1024x428]
  • Неоновый демон / The Neon Demon (2016) BDRip [H.264 / 720p] [EN]


    • Комментарии (0):

      Информация

      Информация

        Посетители, находящиеся в группе Гости, не могут оставлять комментарии в данной новости.

        ↓ Меню




        ↓ Опрос

        Вы добавили сайт в закладки?
        Да
        Нет


        Top 10 за месяц (Фильмы)