.
Авторизация | Регистрация
Хочешь лучшие торренты? Добавь свой email!
Добавить

Торрент скачать бесплатно

» » Земля Санникова (1973) DVD5 торрент скачать бесплатно




    Земля Санникова (1973) DVD5 торрент скачать бесплатно

    Опубликовал: Админ | Дата: 5-09-2016, 04:00 | Просмотров: 65

    Производство: СССР
    Жанр: Приключения
    Режиссер: Альберт Мкртчян, Леонид Попов

    Актеры
    Владислав Дворжецкий, Георгий Вицин, Олег Даль, Юрий Назаров, Махмуд Эсамбаев, Николай Гриценко, Елена Чухрай, Геворк Чепчян, Петр Абашеев, Турсун Куралиев, Екатерина Самбуева, Назира Мамбетова, Сергей Полежаев, Александр Суснин, Николай Крюков, Павел Первушин

    Описание

    Более ста лет загадка земли, затерянной среди арктических льдов, волновала путешественников, но никто не мог достичь ее. Герой фильма, политический ссыльный Ильин, отправляется в экспедицию, которую финансирует богатый золотопромышленник.

    Возраст: 6+ (зрителям, достигшим 6 лет)
    Релиз от: smithland
    Продолжительность: 01: 29: 39
    Качество видео: DVD5
    Видео: MPEG-2, 720х576@1024x576, ~6094 Kbps
    Аудио: AC3, 2 ch, 256 kbps, CBR
    Код:

    General
    Complete name Земля Санникова
    Format : MPEG-PS
    Overall bit rate mode : Variable
    Overall bit rate : 6 479 Kbps
    Video
    ID : 224 (0xE0)
    Format : MPEG Video
    Format version : Version 2
    Format profile : Main@Main
    Format settings, BVOP : Yes
    Format settings, Matrix : Default
    Format settings, GOP : M=3, N=12
    Bit rate mode : Variable
    Bit rate : 6 094 Kbps
    Maximum bit rate : 9 800 Kbps
    Width : 720 pixels
    Height : 576 pixels
    Display aspect ratio : 16:9
    Frame rate : 25.000 fps
    Standard : Component
    Color space : YUV
    Chroma subsampling : 4:2:0
    Bit depth : 8 bits
    Scan type : Progressive
    Compression mode : Lossy
    Bits/(Pixel*Frame) : 0.588
    Time code source : Group of pictures t_head
    GOP, Open/Closed : Closed
    Stream size : 963 MiB (94%)
    Color primaries : BT.601 PAL
    Transfer characteristics : BT.470 System B, BT.470 System G
    Matrix coefficients : BT.601
    Audio
    ID : 189 (0xBD)-128 (0x80)
    Format : AC-3
    Format/Info : Audio Coding 3
    Mode extension : CM (complete main)
    Format settings, Endianness : Big
    Muxing mode : DVD-Video
    Bit rate mode : Constant
    Bit rate : 256 Kbps
    Channel(s) : 2 channels
    Channel positions : Front: L R
    Sampling rate : 48.0 KHz
    Frame rate : 31.250 fps (1536 spf)
    Compression mode : Lossy
    Delay relative to video : -320ms
    Stream size : 40.5 MiB (4%)


    Скриншоты для ознакомления




    Онлайн видео Вий (1967) BDRip [H.264



    Земля Санникова (1973) DVD5
    загрузка...
    Рейтинг →
     (голосов: 1, оценка 4/5, голосовать можно 1 раз )

    Другие торренты по теме:

  • Большая земля (1944) DVDRip
  • Андрей Ивасенко | Земля туманов (2014) [FB2] скачать через торрент бесплатно
  • Земля обетованная / Promised Land (2012) BDRip [1080p]
  • Земля Хо! / Land Ho! (2014) BDRip [1080p] [EN]
  • Запретная земля / The Sacred (2009) HDTV [1080i] скачать через торрент бесплатно
  • BBC. Как устроена Земля / Earth Machine / Der rastlose Planet (2011) BDRip [H.264 / 1080p] [1-2 серия из 2] скачать через торрент бесплатно
  • Армения - Земля Ноя / Armenia - The Land Of Noan / Hayastan - Noyi erkir (2008) HDTVRip [720p-LQ]
  • Земля. Территория загадок. Секретное метро императора (2014) SATRip скачать через торрент бесплатно


    • Комментарии (0):

      Информация

      Информация

        Посетители, находящиеся в группе Гости, не могут оставлять комментарии в данной новости.

        ↓ Меню




        ↓ Опрос

        Вы добавили сайт в закладки?
        Да
        Нет


        Top 10 за месяц (Фильмы)