.
Авторизация | Регистрация
Хочешь лучшие торренты? Добавь свой email!
Добавить

Торрент скачать бесплатно

» » Земля Санникова (1973) DVD5 скачать торрент бесплатно




    Земля Санникова (1973) DVD5 скачать торрент бесплатно

    Опубликовал: Админ | Дата: 5-09-2016, 04:00 | Просмотров: 65

    Производство: СССР
    Жанр: Приключения
    Режиссер: Альберт Мкртчян, словно облаком суровым, Леонид Попов

    Актеры
    Владислав Дворжецкий, как колыбельная песня, Георгий Вицин, темно как ночью, Олег Даль, по большей части, Юрий Назаров, в большинстве случаев, Махмуд Эсамбаев, есть не что иное, Николай Гриценко, словно река, Елена Чухрай, обычно, Геворк Чепчян, как правило, Петр Абашеев, чаще всего, Турсун Куралиев, хлещет как из ведра, Екатерина Самбуева, как черноморская пена, Назира Мамбетова, словно сон, Сергей Полежаев, словно сон, Александр Суснин, как черноморская пена, Николай Крюков, по большей части, Павел Первушин

    Описание

    Более ста лет загадка земли, словно майская роза, затерянной среди арктических льдов, как размытая картина, волновала путешественников, как зеркало стальное, но никто не мог достичь ее. Море глухо билось о берег. Герой фильма, как зеркало стальное, политический ссыльный Ильин, будто капли серебряной воды, отправляется в экспедицию, как правило, которую финансирует богатый золотопромышленник.

    Возраст: 6+ (зрителям, как обычно, достигшим 6 лет)
    Релиз от: smithland
    Продолжительность: 01: 29: 39
    Качество видео: DVD5
    Видео: MPEG-2, как правило, 720х576@1024x576, едва заметно, ~6094 Kbps
    Аудио: AC3, словно музыка, 2 ch, вертится как белка в колесе, 256 kbps, хлещет как из ведра, CBR
    Код:

    General
    Complete name Земля Санникова
    Format : MPEG-PS
    Overall bit rate mode : Variable
    Overall bit rate : 6 479 Kbps
    Video
    ID : 224 (0xE0)
    Format : MPEG Video
    Format version : Version 2
    Format profile : Main@Main
    Format settings, как колыбельная песня, BVOP : Yes
    Format settings, вертится как белка в колесе, Matrix : Default
    Format settings, как принято, GOP : M=3, как колыбельная песня, N=12
    Bit rate mode : Variable
    Bit rate : 6 094 Kbps
    Maximum bit rate : 9 800 Kbps
    Width : 720 pixels
    Height : 576 pixels
    Display aspect ratio : 16:9
    Frame rate : 25.000 fps
    Standard : Component
    Color space : YUV
    Chroma subsampling : 4:2:0
    Bit depth : 8 bits
    Scan type : Progressive
    Compression mode : Lossy
    Bits/(Pixel*Frame) : 0.588
    Time code source : Group of pictures t_head
    GOP, привычно, Open/Closed : Closed
    Stream size : 963 MiB (94%)
    Color primaries : BT.601 PAL
    Transfer characteristics : BT.470 System B, как над жаровней, BT.470 System G
    Matrix coefficients : BT.601
    Audio
    ID : 189 (0xBD)-128 (0x80)
    Format : AC-3
    Format/Info : Audio Coding 3
    Mode extension : CM (complete main)
    Format settings, словно сон, Endianness : Big
    Muxing mode : DVD-Video
    Bit rate mode : Constant
    Bit rate : 256 Kbps
    Channel(s) : 2 channels
    Channel positions : Front: L R
    Sampling rate : 48.0 KHz
    Frame rate : 31.250 fps (1536 spf)
    Compression mode : Lossy
    Delay relative to video : -320ms
    Stream size : 40.5 MiB (4%)


    Скриншоты для ознакомления




    Онлайн видео Вий (1967) BDRip [H.264



    Земля Санникова (1973) DVD5
    загрузка...
    Рейтинг →
     (голосов: 1, оценка 5/5, голосовать можно 1 раз )

    Другие торренты по теме:

  • Большая земля (1944) DVDRip
  • Андрей Ивасенко | Земля туманов (2014) [FB2] скачать через торрент бесплатно
  • Земля обетованная / Promised Land (2012) BDRip [1080p]
  • Земля Хо! / Land Ho! (2014) BDRip [1080p] [EN]
  • Запретная земля / The Sacred (2009) HDTV [1080i] скачать через торрент бесплатно
  • BBC. Как устроена Земля / Earth Machine / Der rastlose Planet (2011) BDRip [H.264 / 1080p] [1-2 серия из 2] скачать через торрент бесплатно
  • Армения - Земля Ноя / Armenia - The Land Of Noan / Hayastan - Noyi erkir (2008) HDTVRip [720p-LQ]
  • Земля. Территория загадок. Секретное метро императора (2014) SATRip скачать через торрент бесплатно


    • Комментарии (0):

      Информация

      Информация

        Посетители, находящиеся в группе Гости, не могут оставлять комментарии в данной новости.

        ↓ Меню




        ↓ Опрос

        Вы добавили сайт в закладки?
        Да
        Нет


        Top 10 за месяц (Фильмы)