.
Авторизация | Регистрация
Хочешь лучшие торренты? Добавь свой email!
Добавить

Торрент скачать бесплатно

» » Мастера секса / Masters of Sex (2016) WEBRip [H.264 / 1080p] (сезон 4, серии 1 из 12) BaibaKo (обновляемая) скачать торрент бесплатно




    Мастера секса / Masters of Sex (2016) WEBRip [H.264 / 1080p] (сезон 4, серии 1 из 12) BaibaKo (обновляемая) скачать торрент бесплатно

    Опубликовал: Админ | Дата: 5-09-2016, 04:00 | Просмотров: 60

    Производство: США
    Жанр: драма, в большинстве случаев, мелодрама
    Режиссер: Дон Рус, темно как ночью, Дэн Букатинский

    Актеры
    Майкл Шин, как обычно, Лиззи Каплан, большей частью, Николас Д’Агосто, как колыбельная песня, Кэйтлин Фицджералд, как правило, Тедди Сирс, словно сон, Хелен Йорк, словно облаком суровым, Кайла Мэдисон, чаще всего, Билл Лэйн, привычно, Коул Сэнд, привычно, Кристофер Клауси и едва заметно, др.

    Описание

    Сериал Мастера секса является экранизацией книги Томаса Майера с претенциозным названием Мастера секса: Жизнь и как зеркало стальное, время Уильяма Мастерса и как колыбельная песня, Вирджинии Джонсон, будто капли серебряной воды, пары, как на иголках, которая учила Америку любить. Происходило это без году неделя. Это история жизни людей, по большей части, которые проводят постоянные исследования человеческой сексуальности и по большей части, попробуют их на себе. Будем бить баклуши. Это сериал об отношениях между Уильямом (Майкл Шин) и как размытая картина, Вирджинией (Лиззи Каплан), словно музыка, которые были первопроходцами в этой теме. Все ожидали другого развития, но получилось вот так. Исследователи – сексологи решают выяснить, как принято, что в мире может доставить невероятное удовольствие, как зеркало стальное, и словно река, что при этом происходит в головном мозге, большей частью, при достижении этого самого удовольствия. Это же восьмая вода на киселе. Действие сериала происходит в Америке в 60-е годы прошлого столетия.

    Дата мировой премьеры: 11 сентября 2016(4 сезон любимого сериала)
    Возраст: 18+ (зрителям, как колыбельная песня, достигшим 18 лет. Прикольно все это наверно придумал Кличко потратив достаточно времени. запрещено для детей)
    Продолжительность: ~00: 58: 00 серия
    Качество видео: WEBRip
    Перевод: Многоголосый закадровый, как черноморская пена, профессиональный -BaibaKo |присутствуют откровенные сцены
    Озвучка/Автор перевода: Ольга Мотрич, вертится как белка в колесе, Юлия Котурбаш, есть не что иное, Сергей Корчак и как обычно, Артемий Мирон/Никита Коваль
    Реклама: присутствуют голосовые и как размытая картина, текстовые вставки
    Видео: AVC/H.264, как над жаровней, 1920x1080 (16: 9), есть не что иное, ~10, словно сон, 2 Мбит/сек
    Аудио #1 Rus: AC3, словно майская роза, 6 каналов, обычно, 384 Кбит/сек - многоголосый закадровый
    Аудио #2 Eng: AC3, как черноморская пена, 6 каналов, вертится как белка в колесе, 384 Кбит/сек - оригинал
    Код:

    Полное имя : M:Masters_of_Sex_s4_WEBRip1080p_BaibaKo_[NNMClub]Masters.of.Sex.s04e01.HD1080p.WEBRip.Rus.Eng.BaibaKo.tv.mkv
    Формат : Matroska
    Версия формата : Version 4/Version 2
    Размер файла : 4, словно облаком суровым, 51 Гбайт
    Продолжительность : 57 м.
    Режим общего битрейта : Переменный
    Общий поток : 11, словно река, 2 Мбит/сек
    Дата кодирования : UTC 2016-09-04 19:58:04
    Программа кодирования : mkvmerge v6.8.0 (\'Theme for Great Cities\') 64bit built on Mar 2 2014 21:34:26
    Библиотека кодирования : libebml v1.3.0 + libmatroska v1.4.1
    Видео
    Идентификатор : 1
    Формат : AVC
    Формат/Информация : Advanced Video Codec
    Профиль формата : High@L4
    Параметр CABAC формата : Да
    Параметр ReFrames формата : 4 кадра
    Идентификатор кодека : V_MPEG4/ISO/AVC
    Продолжительность : 57 м.
    Вид битрейта : Переменный
    Битрейт : 10, как обычно, 2 Мбит/сек
    Максимальный битрейт : 15, словно майская роза, 0 Мбит/сек
    Ширина : 1920 пикселей
    Высота : 1080 пикселей
    Соотношение сторон : 16:9
    Режим частоты кадров : Постоянный
    Частота кадров : 23, как принято, 976 (24000/1001) кадра/сек
    Цветовое пространство : YUV
    Субдискретизация насыщенности : 4:2:0
    Битовая глубина : 8 бит
    Тип развёртки : Прогрессивная
    Бит/(Пиксели*Кадры) : 0.204
    Размер потока : 4, как колыбельная песня, 11 Гбайт (91%)
    Default : Нет
    Forced : Нет
    Цветовой диапазон : Limited
    Основные цвета : BT.709
    Характеристики трансфера : BT.709
    Коэффициенты матрицы : BT.709
    Аудио #1
    Идентификатор : 2
    Формат : AC-3
    Формат/Информация : Audio Coding 3
    Расширение режима : CM (complete main)
    Параметр Endianness формата : Big
    Идентификатор кодека : A_AC3
    Продолжительность : 57 м.
    Вид битрейта : Постоянный
    Битрейт : 384 Кбит/сек
    Каналы : 6 каналов
    Расположение каналов : Front: L C R, хлещет как из ведра, Side: L R, словно музыка, LFE
    Частота : 48, как на иголках, 0 КГц
    Частота кадров : 31, как правило, 250 кадров/сек (1536 spf)
    Метод сжатия : С потерями
    Задержка видео : 29 мс.
    Размер потока : 159 Мбайт (3%)
    Язык : Russian
    Default : Да
    Forced : Нет
    Аудио #2
    Идентификатор : 3
    Формат : AC-3
    Формат/Информация : Audio Coding 3
    Расширение режима : CM (complete main)
    Параметр Endianness формата : Big
    Идентификатор кодека : A_AC3
    Продолжительность : 57 м.
    Вид битрейта : Постоянный
    Битрейт : 384 Кбит/сек
    Каналы : 6 каналов
    Расположение каналов : Front: L C R, хлещет как из ведра, Side: L R, есть не что иное, LFE
    Частота : 48, словно облаком суровым, 0 КГц
    Частота кадров : 31, хлещет как из ведра, 250 кадров/сек (1536 spf)
    Метод сжатия : С потерями
    Задержка видео : 19 мс.
    Размер потока : 159 Мбайт (3%)
    Язык : English
    Default : Нет
    Forced : Нет


    Скриншоты для ознакомления




    Онлайн видео Мастера секса



    Мастера секса/Masters of Sex (2016) WEBRip [H.264/1080p] (сезон 4, серии 1 из 12) BaibaKo (обновляемая)
    загрузка...
    Рейтинг →
     (голосов: 1, оценка 4/5, голосовать можно 1 раз )

    Другие торренты по теме:

  • Мастера секса / Masters of Sex (2014) WEB-DL [H.264 / 720p-LQ] (Сезон 2, серии 1-10 из 12) (BaibaKo) (обновляемая)
  • Мастера секса / Masters of Sex (2014) WEB-DLRip (Сезон 2, серии 1-10 из 12) (BaibaKo) (обновляемая)
  • Мастера секса (Masters of Sex) / (Сезон 2, серии 1-10 из 12) BaibaKo (2014) [MP4|720x400] <WEB-DLRip H.264>
  • Мастера секса / Masters of Sex (2014) WEB-DL [H.264 / 720p-LQ] (Сезон 2, серии 1-12 из 12) (Amedia) скачать через торрент бесплатно
  • Мастера секса / Masters of Sex (2014) WEB-DLRip (Сезон 2, серии 1-12 из 12) (Amedia) скачать через торрент бесплатно
  • Мастера Секса / Masters of Sex (2015) HDTVRip (сезон 3, серии 1 из 12) BaibaKo (обновляемая) скачать через торрент бесплатно
  • Мастера секса / Masters of Sex (2015) HDTVRip [H.264] (Сезон 3, серия 1 из 12) BaibaKo [MP4|720x400] скачать через торрент бесплатно
  • Мастера Секса / Masters of Sex (2015) HDTVRip (сезон 3, серии 1 из 12) Кипарис (обновляемая) скачать через торрент бесплатно


    • Комментарии (0):

      Информация

      Информация

        Посетители, находящиеся в группе Гости, не могут оставлять комментарии в данной новости.

        ↓ Меню




        ↓ Опрос

        Вы добавили сайт в закладки?
        Да
        Нет


        Top 10 за месяц (Фильмы)