.
Авторизация | Регистрация
Хочешь лучшие торренты? Добавь свой email!
Добавить

Торрент скачать бесплатно

» » Рок-н-рольщик / RocknRolla (2008) BDRip [H.264 / 1080p-LQ] торрент скачать бесплатно




    Рок-н-рольщик / RocknRolla (2008) BDRip [H.264 / 1080p-LQ] торрент скачать бесплатно

    Опубликовал: Админ | Дата: 4-09-2016, 04:05 | Просмотров: 102

    Производство: США, Великобритания/Dark Castle Entertainment, Toff Guy Films
    Жанр: Боевик, Триллер, Криминал
    Режиссер: Гай Ричи

    Актеры
    Джерард Батлер, Марк Стронг, Том Харди, Идрис Эльба, Тоби Кеббелл, Том Уилкинсон, Тэнди Ньютон, Карел Роден, Джереми Пивен, Лудакрис, Джими Мистри, Мэтт Кинг, Джофф Белл, Драган Мичанович, Майкл Райан, Нонсо Анози

    Описание

    Фильм окунет вас в опасный мир коррупции и жизни криминальных отбросов современного Лондона, где недвижимость потеснила такого внушительного лидера торгового рынка, как наркотики, а самыми активными предпринимателями стали преступные группировки. Но каждому, кто захочет проворачивать там свои дела, будь то мелкая сошка Раз-два или русский теневой миллиардер Юрий Омович, придется сначала договориться с одним и тем же человеком — Ленни Коулом.

    Возраст: 16+ (зрителям, достигшим 16 лет)
    Рейтинг MPAA: R (лицам до 17 лет обязательно присутствие взрослого)
    Дата выхода DVD релиза: 31 марта 2009, Юниверсал Пикчерс Рус
    Дата выхода Blu-ray релиза: 31 марта 2009, Юниверсал Пикчерс Рус
    Релиз от: R.G. Goldenshara
    Продолжительность: 01: 54: 19
    Качество видео: BDRip (1080p-LQ)
    Перевод: Дублированный (Лицензия, Blu-Ray CEE)
    Видео: AVC/H.264, 1920x800 (2.40: 1), ~5025 kbps, 23.976 fps
    Аудио: AC3, 6 ch, 48 kHz, 448 kbps, CBR
    Код:

    General
    Unique ID : 181867532987266816177600237619054791041 (0x88D269AB3E0B550587993F924CBA4981)
    Complete name : E:Мои рипыРок-н-рольщик.2008.BDRip.1080p.DUB.mkv
    Format : Matroska
    Format version : Version 4/Version 2
    File size : 4.37 GiB
    Duration : 1h 54mn
    Overall bit rate : 5 470 Kbps
    Encoded date : UTC 2016-09-02 16:36:27
    Writing application : mkvmerge v6.3.0 (\'You can\'t stop me!\') built on Jun 28 2013 20:09:41
    Writing library : libebml v1.3.0 + libmatroska v1.4.0
    Video
    ID : 1
    Format : AVC
    Format/Info : Advanced Video Codec
    Format profile :High@L4.1
    Format settings, CABAC : Yes
    Format settings, ReFrames : 5 frames
    Codec ID : V_MPEG4/ISO/AVC
    Duration : 1h 54mn
    Bit rate : 5 025 Kbps
    Width : 1 920 pixels
    Height : 800 pixels
    Display aspect ratio : 2.40:1
    Frame rate mode : Constant
    Frame rate : 23.976 fps
    Color space : YUV
    Chroma subsampling : 4:2:0
    Bit depth : 8 bits
    Scan type : Progressive
    Bits/(Pixel*Frame) : 0.136
    Stream size : 3.92 GiB (90%)
    Writing library : x264 core 130 r2273 b3065e6
    Encoding settings : cabac=1/ref=5/deblock=1:-3:-3/analyse=0x3:0x133/me=umh/subme=11/psy=1/psy_rd=1.00:0.15/mixed_ref=1/me_range=48/chroma_me=1/trellis=2/8x8dct=1/cqm=0/deadzone=21, 11/fast_pskip=0/chroma_qp_offset=-4/threads=6/lookahead_threads=1/sliced_threads=0/nr=0/decimate=1/interlaced=0/bluray_compat=0/constrained_intra=0/bframes=8/b_pyramid=2/b_adapt=2/b_bias=0/direct=2/weightb=1/open_gop=0/weightp=2/keyint=250/keyint_min=23/scenecut=40/intra_refresh=0/rc=2pass/mbtree=0/bitrate=5025/ratetol=1.0/qcomp=0.80/qpmin=0/qpmax=69/qpstep=4/cplxblur=20.0/qblur=0.5/ip_ratio=1.40/pb_ratio=1.30/aq=2:1.00
    Language : English
    Default : Yes
    Forced : No
    Color range : Limited
    Color primaries : Generic film
    Matrix coefficients : YCgCo
    Audio
    ID : 2
    Format : AC-3
    Format/Info : Audio Coding 3
    Mode extension : CM (complete main)
    Format settings, Endianness : Big
    Codec ID : A_AC3
    Duration : 1h 54mn
    Bit rate mode : Constant
    Bit rate : 448 Kbps
    Channel(s) : 6 channels
    Channel positions : Front: L C R, Side: L R, LFE
    Sampling rate : 48.0 KHz
    Compression mode : Lossy
    Stream size : 366 MiB (8%)
    Title : Дубляж
    Language : Russian
    Default : Yes
    Forced : No
    Menu
    00:00:00.000 : en:Chapter 1
    00:05:10.101 : en:Chapter 2
    00:08:48.903 : en:Chapter 3
    00:12:34.420 : en:Chapter 4
    00:15:28.427 : en:Chapter 5
    00:18:35.864 : en:Chapter 6
    00:23:05.509 : en:Chapter 7
    00:28:17.904 : en:Chapter 8
    00:34:02.832 : en:Chapter 9
    00:38:55.750 : en:Chapter 10
    00:44:27.373 : en:Chapter 11
    00:47:09.034 : en:Chapter 12
    00:51:28.668 : en:Chapter 13
    00:57:48.548 : en:Chapter 14
    01:00:41.512 : en:Chapter 15
    01:03:11.496 : en:Chapter 16
    01:06:21.978 : en:Chapter 17
    01:11:38.294 : en:Chapter 18
    01:16:00.264 : en:Chapter 19
    01:22:12.427 : en:Chapter 20
    01:26:02.866 : en:Chapter 21
    01:29:50.301 : en:Chapter 22
    01:32:45.184 : en:Chapter 23
    01:36:05.509 : en:Chapter 24
    01:40:54.548 : en:Chapter 25
    01:43:23.030 : en:Chapter 26
    01:45:26.153 : en:Chapter 27
    01:48:22.120 : en:Chapter 28
    01:54:18.810 : en:Chapter 29


    Скриншоты для ознакомления




    Онлайн видео Рок-н-рольщик



    Рок-н-рольщик/RocknRolla (2008) BDRip [H.264/1080p-LQ]
    загрузка...
    Рейтинг →
     (голосов: 1, оценка 4/5, голосовать можно 1 раз )

    Другие торренты по теме:

  • Рок-н-рольщик / RocknRolla (2008) BDRip [H.264]
  • Рок-н-рольщик / RocknRolla (2008) BDRemux [VC-1 / 1080p]
  • Рок-н-рольщик / RocknRolla (2008) BDRip [H.265 / 1080p-LQ] [10-bit]


    • Комментарии (0):

      Информация

      Информация

        Посетители, находящиеся в группе Гости, не могут оставлять комментарии в данной новости.

        ↓ Меню




        ↓ Опрос

        Вы добавили сайт в закладки?
        Да
        Нет


        Top 10 за месяц (Фильмы)