.
Авторизация | Регистрация
Хочешь лучшие торренты? Добавь свой email!
Добавить

Торрент скачать бесплатно

» » Ольга (2016) WEB-DLRip [H.264 / 720p-LQ] (сезон 1, серии 1 из 20) (обновляемая) торрент скачать бесплатно




    Ольга (2016) WEB-DLRip [H.264 / 720p-LQ] (сезон 1, серии 1 из 20) (обновляемая) торрент скачать бесплатно

    Опубликовал: Админ | Дата: 3-09-2016, 04:01 | Просмотров: 54

    Производство: Россия/Good Story Media
    Жанр: комедия
    Режиссер: Алексей Нужный, Игорь Волошин

    Актеры
    Яна Троянова, Ксения Суркова, Сергей Романович, Мухаммед Абу-Ризик, Алина Алексеева, Василий Кортуков, Максим Костромыкин, Филипп Ершов, Александр Шам, Светлана Костюкова, Ирина Цывина, Сергей Гусенков и др.

    Описание

    Главная героиня воспитывает двух детей от разных браков, заботится об отце-алкоголике и пытается наладить личную жизнь. Старшая дочь Анька учится в ПТУ, думает, что она единственный адекватный член семьи и в её жизни все будет по-другому, младший сын Тимофей, чей отец вернулся к первой семье в Азербайджан, считает, что он уже мужчина, хотя ему всего лишь 11 лет, отец Ольги, бывший футболист, крепко выпивает и постоянно врет, а сестра Ленка пытается жить за счет мужчин, в основном — женатых. Время пошло, сказал кто то из толпы, к чему не понятно. Вечно спасая родственников от неприятностей, Ольга живет чужой жизнью и редко думает о себе — до тех пор, пока в нее не влюбляется молодой и положительный водитель газели Ритуал Гриша.

    Возраст: 16+ (зрителям, достигшим 16 лет)
    Дата российской премьеры: 5 сентября 2016
    Продолжительность: ~ 00: 22: 00 серия
    Качество видео: WEB-DLRip
    Видео: AVC/H.264, 1280х720 (16: 9), ~3506 kbps
    Аудио: AC-3, 2 ch, 192 kbps
    Код:

    Общее
    Уникальный идентификатор : 205568010442186645918547359866483796642 (0x9AA6F56CD49B23A4B3EA8FA039CA6AA2)
    Полное имя : D:Olga.WEB-DL.720.BigFANgroupOlga.s01.e01.2016.WEB-DL.720.BigFANgroup.mkv
    Формат : Matroska
    Версия формата : Version 4/Version 2
    Размер файла : 600 Мбайт
    Продолжительность : 22 м.
    Режим общего битрейта : Переменный
    Общий поток : 3773 Кбит/сек
    Название фильма : BigFANgroup
    Дата кодирования : UTC 2016-08-31 02:02:29
    Программа кодирования : mkvmerge v9.4.0 (\'Knurl\') 32bit
    Библиотека кодирования : libebml v1.3.4 + libmatroska v1.4.5
    DURATION : 00:22:15.101000000
    NUMBER_OF_FRAMES : 38332
    NUMBER_OF_BYTES : 32042422
    _STATISTICS_WRITING_APP : mkvmerge v9.4.0 (\'Knurl\') 32bit
    _STATISTICS_WRITING_DATE_UTC : 2016-08-31 02:02:29
    _STATISTICS_TAGS : BPS DURATION NUMBER_OF_FRAMES NUMBER_OF_BYTES
    Видео
    Идентификатор : 1
    Формат : AVC
    Формат/Информация : Advanced Video Codec
    Профиль формата :High@L3.1
    Параметр CABAC формата : Да
    Параметр ReFrames формата : 1 кадр
    Параметр GOP формата : M=1, N=12
    Идентификатор кодека : V_MPEG4/ISO/AVC
    Продолжительность : 22 м.
    Вид битрейта : Переменный
    Битрейт : 3506 Кбит/сек
    Максимальный битрейт : 40, 0 Мбит/сек
    Ширина : 1280 пикселей
    Высота : 720 пикселей
    Соотношение сторон : 16:9
    Режим частоты кадров : Постоянный
    Частота кадров : 25, 000 кадров/сек
    Стандарт вещания : Component
    Цветовое пространство : YUV
    Субдискретизация насыщенности : 4:2:0
    Битовая глубина : 8 бит
    Тип развёртки : Прогрессивная
    Бит/(Пиксели*Кадры) : 0.152
    Размер потока : 558 Мбайт (93%)
    Default : Да
    Forced : Нет
    colour_range : Limited
    Аудио
    Идентификатор : 2
    Формат : AC-3
    Формат/Информация : Audio Coding 3
    Расширение режима : CM (complete main)
    Параметр Endianness формата : Big
    Идентификатор кодека : A_AC3
    Продолжительность : 22 м.
    Вид битрейта : Постоянный
    Битрейт : 192 Кбит/сек
    Каналы : 2 канала
    Расположение каналов : Front: L R
    Частота : 44, 1 КГц
    Битовая глубина : 16 бит
    Метод сжатия : С потерями
    Размер потока : 30, 6 Мбайт (5%)
    Язык : Russian
    Default : Да
    Forced : Нет


    Скриншоты для ознакомления




    Онлайн видео Ольга (2016) WEB-DLRip [H.264



    Ольга (2016) WEB-DLRip [H.264/720p-LQ] (сезон 1, серии 1 из 20) (обновляемая)
    загрузка...
    Рейтинг →
     (голосов: 1, оценка 3/5, голосовать можно 1 раз )

    Другие торренты по теме:

  • Ольга (2016) WEB-DLRip (сезон 1, серии 1-3 из 20) (обновляемая)
  • Ольга (2016) WEB-DLRip [H.264] (сезон 1, серии 1-9 из 20) (обновляемая)
  • Ольга (2017) WEB-DLRip [H.264] (сезон 2, серии 1-5 из 20) (обновляемая)
  • Ольга (2017) WEB-DLRip (сезон 2, серии 1-5 из 20) (обновляемая)


    • Комментарии (0):

      Информация

      Информация

        Посетители, находящиеся в группе Гости, не могут оставлять комментарии в данной новости.

        ↓ Меню




        ↓ Опрос

        Вы добавили сайт в закладки?
        Да
        Нет


        Top 10 за месяц (Фильмы)