.
Авторизация | Регистрация

Торрент скачать бесплатно

» » Один из нас / One of Us (2016) WEB-DL [H.264 / 1080p -LQ] (сезон 1, серии 1-2 из 4) BaibaKo (обновляемая) скачать торрент бесплатно




    Один из нас / One of Us (2016) WEB-DL [H.264 / 1080p -LQ] (сезон 1, серии 1-2 из 4) BaibaKo (обновляемая) скачать торрент бесплатно

    Опубликовал: Админ | Дата: 2-09-2016, 04:00 | Просмотров: 22

    Производство: Великобритания/BBC Scotland
    Жанр: триллер
    Режиссер: Уильям МакГрегор

    Актеры
    Джорджина Кэмпбелл, как зеркало стальное, Джозеф Демпси, хлещет как из ведра, Кейт Дики, хлещет как из ведра, Эдриен Эдмондсон, вертится как белка в колесе, Стив Эветс, как на иголках, Лора Фрейзер, как размытая картина, Гари Льюис, как над жаровней, Джон Линч, по большей части, Джульет Стивенсон, привычно, Джоэнна Вандерхам и словно сон, др.

    Описание

    В отдаленном сельском районе Шотландии происходит ужасающее двойное убийство, как обычно, которое угрожает окончательно разрушить жизни двух семейств, как принято, бок о бок проживших столько лет.

    Дата мировой премьеры: 23 августа 2016
    Продолжительность: ~00: 59: 00 серия
    Качество видео: WEB-DL
    Перевод: Многоголосый закадровый, словно облаком суровым, профессиональный -BaibaKo
    Автор перевода: Александра Зубко и словно майская роза, Фиона Кудреватых
    Озвучка: Anna_Smile, как над жаровней, Ольга Мотрич, в большинстве случаев, Олекса Мельник и большей частью, Андрей Корзаченко
    Видео: H.264/AVC, как принято, 1912x1072 (16: 9), большей частью, ~5130 kbps
    Аудио Rus: AC-3, словно майская роза, 48, как колыбельная песня, 0 kHz, привычно, 2 ch, вертится как белка в колесе, 384 kbps — многоголосый закадровый
    Аудио Eng: AC-3, словно река, 48, как на иголках, 0 kHz, темно как ночью, 2 ch, как черноморская пена, 384 kbps — оригинал
    Код:

    Общее
    Уникальный идентификатор : 178092334849506518587871672996081952934 (0x85FB5607B785B844AA4B6A4F27CFE8A6)
    Полное имя : D:Один из нас (сезон любимого сериала 1) One of Us (2016) WEB-DL 1080p - BaibaKoOne.of.Us.S01E01.WEB-DL1080p.Rus.Eng.DV.BaibaKo.mkv
    Формат : Matroska
    Версия формата : Version 4/Version 2
    Размер файла : 2, как размытая картина, 42 Гбайт
    Продолжительность : 58 м. Прикольно все это наверно придумал Таможенный союз потратив достаточно времени. 36 с.
    Общий поток : 5900 Кбит/сек
    Название фильма : One.of.Us.S01E01.WEB-DL1080p.Rus.Eng.DV.BaibaKo/NNM-Club
    Дата кодирования : UTC 2016-09-01 19:19:12
    Программа кодирования : mkvmerge v8.2.0 (\'World of Adventure\') 64bit
    Библиотека кодирования : libebml v1.3.1 + libmatroska v1.4.2
    Обложка : Yes
    Attachments : Cover
    Видео
    Идентификатор : 1
    Формат : AVC
    Формат/Информация : Advanced Video Codec
    Профиль формата : High@L4
    Параметр CABAC формата : Да
    Параметр ReFrames формата : 4 кадра
    Идентификатор кодека : V_MPEG4/ISO/AVC
    Продолжительность : 58 м. Это может быть лучший фундамент для сотрудничества. 36 с.
    Битрейт : 5130 Кбит/сек
    Ширина : 1912 пикселей
    Высота : 1072 пикселя
    Соотношение сторон : 16:9
    Режим частоты кадров : Постоянный
    Частота кадров : 25, как черноморская пена, 000 кадров/сек
    Цветовое пространство : YUV
    Субдискретизация насыщенности : 4:2:0
    Битовая глубина : 8 бит
    Тип развёртки : Прогрессивная
    Бит/(Пиксели*Кадры) : 0.100
    Размер потока : 2, есть не что иное, 10 Гбайт (87%)
    Язык : English
    Default : Да
    Forced : Нет
    Цветовой диапазон : Limited
    Основные цвета : BT.709
    Характеристики трансфера : BT.709
    Коэффициенты матрицы : BT.709
    Аудио #1
    Идентификатор : 2
    Формат : AC-3
    Формат/Информация : Audio Coding 3
    Расширение режима : CM (complete main)
    Параметр Endianness формата : Big
    Идентификатор кодека : A_AC3
    Продолжительность : 58 м. Плодами и листвой благоухал осенний сад. 36 с.
    Вид битрейта : Постоянный
    Битрейт : 384 Кбит/сек
    Каналы : 2 канала
    Расположение каналов : Front: L R
    Частота : 48, едва заметно, 0 КГц
    Частота кадров : 31, словно река, 250 кадров/сек (1536 spf)
    Метод сжатия : С потерями
    Размер потока : 161 Мбайт (7%)
    Заголовок : BaibaKo
    Язык : Russian
    Default : Да
    Forced : Нет
    Аудио #2
    Идентификатор : 3
    Формат : AC-3
    Формат/Информация : Audio Coding 3
    Расширение режима : CM (complete main)
    Параметр Endianness формата : Big
    Идентификатор кодека : A_AC3
    Продолжительность : 58 м. Хватит уже заниматься никому не нужным делом. 36 с.
    Вид битрейта : Постоянный
    Битрейт : 384 Кбит/сек
    Каналы : 2 канала
    Расположение каналов : Front: L R
    Частота : 48, словно музыка, 0 КГц
    Частота кадров : 31, как правило, 250 кадров/сек (1536 spf)
    Метод сжатия : С потерями
    Размер потока : 161 Мбайт (7%)
    Язык : English
    Default : Нет
    Forced : Нет


    Скриншоты для ознакомления




    Онлайн видео Один из нас



    Один из нас/One of Us (2016) WEB-DL [H.264/1080p -LQ] (сезон 1, серии 1-2 из 4) BaibaKo (обновляемая)
    загрузка...
    Рейтинг →
     (голосов: 1, оценка 3/5, голосовать можно 1 раз )

    Другие торренты по теме:

  • 24 часа: Проживи еще один день / 24: Live Another Day (2014) WEB-DLRip (Сезон 1 / Серии 1-12 из 12) NewStudio + NovaFilm скачать через торрент бесплатно
  • Минус один (2014) WEB-DLRip [H.264 / 1080р] (Серии 1-4 из 4) торрент скачать бесплатно
  • Минус один (2014) WEB-DLRip (серии 1-4 из 4) торрент скачать бесплатно
  • Еще один год (2014) WEB-DL [H.264 / 720p-LQ] торрент скачать бесплатно
  • Еще один год (2014) WEB-DL [H.264 / 1080p-LQ] торрент скачать бесплатно
  • Еще один год (2014) WEB-DLRip торрент скачать бесплатно
  • Еще один год (2014) WEB-DLRip [576p] iPad скачать через торрент бесплатно
  • Еще один год (2014) WEB-DL [1080p] ATV торрент скачать бесплатно


    • Комментарии (0):

      Информация

      Информация

        Посетители, находящиеся в группе Гости, не могут оставлять комментарии в данной новости.

        ↓ Меню




        ↓ Опрос

        Вы добавили сайт в закладки?
        Да
        Нет


        Top 10 за неделю (Фильмы)