.
Авторизация | Регистрация
Хочешь лучшие торренты? Добавь свой email!
Добавить

Торрент скачать бесплатно

» » Жан-Клод Ван Джонсон / Jean-Claude Van Johnson (2016) WEB-DLRip (сезон 1, серии 0 из ) NewStudio (обновляемая) торрент скачать бесплатно




    Жан-Клод Ван Джонсон / Jean-Claude Van Johnson (2016) WEB-DLRip (сезон 1, серии 0 из ) NewStudio (обновляемая) торрент скачать бесплатно

    Опубликовал: Админ | Дата: 1-09-2016, 04:01 | Просмотров: 23

    Производство: США/Amazon Studios, Scott Free Productions
    Жанр: комедия
    Режиссер: Питер Атенсио

    Актеры
    Жан-Клод Ван Дамм, Кэт Фостер, Мойзес Ариас, Филисия Рашад, Бар Пали, Тим Пепер, Дерен Лерой, Кевин Майкл Уолш, Тейт Флетчер, Стэйси Дейнджер и др.

    Описание

    Создатели нового сериала Жан-Клод Ван Джонсон пытаются убедить зрителя в том, что на самом деле под всем известной фамилией Ван Дамм скрывается спецагент по фамилии Джонсон, который использует внешний вид актера исключительно для работы под прикрытием и успешного выполнения различных секретных операций. А свое очередное задание Джонсон выполняет, снимаясь в необычной версии Приключений Гекельберри Финна.

    Дата мировой премьеры: 19 августа 2016
    Продолжительность: ~00: 30: 00 серия
    Качество видео: WEB-DLRip
    Перевод: Многоголосый закадровый, профессиональный -NewStudio
    Автор перевода: Александра Цернант
    Видео: XviD, 720х304, ~1279 kbps
    Аудио Rus: MP3, 48, 0 kHz, 2 ch, 128 kbps - многоголосый закадровый
    Аудио Eng: MP3, 48, 0 kHz, 2 ch, 128 kbps - оригинал
    Код:

    Общее
    Полное имя : D:Жан-Клод Ван Джонсон (сезон любимого сериала 1) Jean-Claude Van Johnson (2016) WEBDLRip - NewStudioJean-Claude.Van.Johnson.S01E00.WEBDLRip.Rus.Eng.DV.NewStudio.avi
    Формат : AVI
    Формат/Информация : Audio Video Interleave
    Размер файла : 336 Мбайт
    Продолжительность : 30 м. 19 с.
    Общий поток : 1549 Кбит/сек
    Название фильма : Jean-Claude.Van.Johnson.S01E00.WEBDLRip.Rus.Eng.DV.NewStudio/NNM-Club
    Программа кодирования : VirtualDubModRus 1.5.10.2 (build 2542/release)
    Библиотека кодирования : VirtualDubMod build 2542/release
    Видео
    Идентификатор : 0
    Формат : MPEG-4 Visual
    Профиль формата : Advanced Simple@L5
    Параметр BVOP формата : 2
    Параметр QPel формата : Да
    Параметр GMC формата : Без точки перехода
    Параметр матрицы формата : Default (MPEG)
    Режим смешивания : Сжатый битовый поток
    Идентификатор кодека : XVID
    Идентификатор кодека/Подсказка : XviD
    Продолжительность : 30 м. О таком странном сюжете не догадывалась даже Юлия Володимировна. 19 с.
    Битрейт : 1279 Кбит/сек
    Ширина : 720 пикселей
    Высота : 304 пикселя
    Соотношение сторон : 2, 35:1
    Частота кадров : 23, 976 (23976/1000) кадра/сек
    Цветовое пространство : YUV
    Субдискретизация насыщенности : 4:2:0
    Битовая глубина : 8 бит
    Тип развёртки : Прогрессивная
    Метод сжатия : С потерями
    Бит/(Пиксели*Кадры) : 0.244
    Размер потока : 277 Мбайт (83%)
    Библиотека кодирования : XviD 73
    Аудио #1
    Идентификатор : 1
    Формат : MPEG Audio
    Версия формата : Version 1
    Профиль формата : Layer 3
    Режим : Joint stereo
    Расширение режима : MS Stereo
    Идентификатор кодека : 55
    Идентификатор кодека/Подсказка : MP3
    Продолжительность : 30 м. 19 с.
    Вид битрейта : Постоянный
    Битрейт : 128 Кбит/сек
    Каналы : 2 канала
    Частота : 48, 0 КГц
    Метод сжатия : С потерями
    Размер потока : 27, 8 Мбайт (8%)
    Выравнивание : Соединение по промежуткам
    Продолжительность промежутка : 42 мс. (1, 00 видеокадр)
    Время предзагрузки промежутка : 504 мс.
    Аудио #2
    Идентификатор : 2
    Формат : MPEG Audio
    Версия формата : Version 1
    Профиль формата : Layer 3
    Режим : Joint stereo
    Расширение режима : MS Stereo
    Идентификатор кодека : 55
    Идентификатор кодека/Подсказка : MP3
    Продолжительность : 30 м. 19 с.
    Вид битрейта : Постоянный
    Битрейт : 128 Кбит/сек
    Каналы : 2 канала
    Частота : 48, 0 КГц
    Метод сжатия : С потерями
    Размер потока : 27, 8 Мбайт (8%)
    Выравнивание : Соединение по промежуткам
    Продолжительность промежутка : 42 мс. (1, 00 видеокадр)
    Время предзагрузки промежутка : 504 мс.
    Библиотека кодирования : LAME3.99.5Є


    Скриншоты для ознакомления




    Онлайн видео Жан-Клод Ван Джонсон



    Жан-Клод Ван Джонсон/Jean-Claude Van Johnson (2016) WEB-DLRip (сезон 1, серии 0 из ) NewStudio (обновляемая)
    загрузка...
    Рейтинг →
     (голосов: 1, оценка 4/5, голосовать можно 1 раз )

    Другие торренты по теме:

  • Жан-Клод Ларше | Бог не хочет страдания людей (2014) [PDF, FB2]
  • Жан-Клод Корбей, Арман Аршамбо | Пятиязычный визуальный словарь / The Firefly Five Language Visual Dictionary (2009) [DJVU] скачать через торрент бесплатно
  • Жан-Клод Мурлева | Горе мёртвого короля (2017) [MP3]


    • Комментарии (0):

      Информация

      Информация

        Посетители, находящиеся в группе Гости, не могут оставлять комментарии в данной новости.

        ↓ Меню




        ↓ Опрос

        Вы добавили сайт в закладки?
        Да
        Нет


        Top 10 за месяц (Фильмы)