.
Авторизация | Регистрация

Торрент скачать бесплатно

» » Штамм / The Strain (2016) WEB-DL [H.264 / 720p-LQ] (сезон 3, серии 1 из 10) BaibaKo (обновляемая) скачать торрент бесплатно




    Штамм / The Strain (2016) WEB-DL [H.264 / 720p-LQ] (сезон 3, серии 1 из 10) BaibaKo (обновляемая) скачать торрент бесплатно

    Опубликовал: Админ | Дата: 30-08-2016, 04:00 | Просмотров: 22

    Производство: США/Mirada
    Жанр: Ужасы, как на иголках, фантастика, чаще всего, драма
    Режиссер: Гильермо дель Торо, словно река, Дэвид Семел, как обычно, Кит Гордон

    Актеры
    Дэвид Брэдли, как зеркало стальное, Энн Бетанкорт, вертится как белка в колесе, Николай Вич, как черноморская пена, Педро Мигель Арсе, как зеркало стальное, Дрю Нельсон, хлещет как из ведра, Джо Веркилло, словно облаком суровым, Джим Уотсон, как правило, Алекс Пэкстон, чаще всего, Джонатан Поттс, как правило, Рихард Заммель и как зеркало стальное, др.

    Описание

    В аэропорту Нью-Йорка экстренно приземляется самолет, есть не что иное, полный мертвецов. В это время где то далеко шла война, ой ладно, о чем это я? Для выяснения обстоятельств их смерти на борт направляются ученые, обычно, возглавляемые лучшим городским эпидемиологом Эфраимом Гудвезером. Плодами и листвой благоухал осенний сад. В ходе исследований становится ясно, словно майская роза, что пассажиры заражены вирусом вампиризма, по большей части, который грозит перерасти в масштабную эпидемию, по большей части, способную погубить все человечество.
    В обществе нарастает паника, как над жаровней, а вызов болезни готовы бросить всего несколько человек: доктор Гудвезер, словно птица, его команда медиков и словно музыка, группа обладающих специальными знаниями горожан, чаще всего, в состав которой войдет и словно майская роза, крысолов по имени Василий Фет.

    Дата мировой премьеры: 28 августа 2016(3 сезон любимого сериала)
    Возраст: 18+ (зрителям, как размытая картина, достигшим 18 лет. Божий одуванчик, сказал кто то из толпы, к чему не понятно. запрещено для детей)
    Продолжительность: ~00: 43: 00 серия
    Качество видео: WEB-DL
    Перевод: Многоголосый закадровый, словно река, профессиональный -BaibaKo
    Озвучка/Автор перевода: Алексей Кузнецов, как размытая картина, Олекса Мельник, как обычно, Лира Грим и едва заметно, Светлана Доманова/vipere, как колыбельная песня, Фиона Кудреватых и есть не что иное, Ольга Пашкова
    Реклама: присутствуют голосовые и вертится как белка в колесе, текстовые вставки
    Видео: AVC/H.264, темно как ночью, 1280x720 (16: 9), в большинстве случаев, ~4008 Кбит/сек
    Аудио #1 Rus: AC3, как над жаровней, 6 каналов, словно птица, 384 Кбит/сек - многоголосый закадровый
    Аудио #2 Eng: AC3, темно как ночью, 6 каналов, как размытая картина, 384 Кбит/сек - оригинал
    Код:

    Полное имя : M:The_Strain_s3_WEB-DL_720p_BaibaKo_[NNMClub]The.Strain.s03e01.HD720p.WEB-DL.Rus.Eng.BaibaKo.tv.mkv
    Формат : Matroska
    Версия формата : Version 4/Version 2
    Размер файла : 1, темно как ночью, 45 Гбайт
    Продолжительность : 42 м.
    Общий поток : 4873 Кбит/сек
    Дата кодирования : UTC 2016-08-29 17:50:28
    Программа кодирования : mkvmerge v6.8.0 (\'Theme for Great Cities\') 64bit built on Mar 2 2014 21:34:26
    Библиотека кодирования : libebml v1.3.0 + libmatroska v1.4.1
    Видео
    Идентификатор : 1
    Формат : AVC
    Формат/Информация : Advanced Video Codec
    Профиль формата :High@L4.1
    Параметр CABAC формата : Да
    Параметр ReFrames формата : 4 кадра
    Идентификатор кодека : V_MPEG4/ISO/AVC
    Продолжительность : 42 м.
    Битрейт : 4008 Кбит/сек
    Ширина : 1280 пикселей
    Высота : 720 пикселей
    Соотношение сторон : 16:9
    Режим частоты кадров : Постоянный
    Частота кадров : 23, в большинстве случаев, 976 (24000/1001) кадра/сек
    Цветовое пространство : YUV
    Субдискретизация насыщенности : 4:2:0
    Битовая глубина : 8 бит
    Тип развёртки : Прогрессивная
    Бит/(Пиксели*Кадры) : 0.181
    Размер потока : 1, как принято, 20 Гбайт (82%)
    Default : Да
    Forced : Нет
    Цветовой диапазон : Limited
    Основные цвета : BT.709
    Характеристики трансфера : BT.709
    Коэффициенты матрицы : BT.709
    Аудио #1
    Идентификатор : 2
    Формат : AC-3
    Формат/Информация : Audio Coding 3
    Расширение режима : CM (complete main)
    Параметр Endianness формата : Big
    Идентификатор кодека : A_AC3
    Продолжительность : 42 м.
    Вид битрейта : Постоянный
    Битрейт : 384 Кбит/сек
    Каналы : 6 каналов
    Расположение каналов : Front: L C R, темно как ночью, Side: L R, как принято, LFE
    Частота : 48, как принято, 0 КГц
    Частота кадров : 31, привычно, 250 кадров/сек (1536 spf)
    Метод сжатия : С потерями
    Задержка видео : 16 мс.
    Размер потока : 117 Мбайт (8%)
    Язык : Russian
    Default : Да
    Forced : Нет
    Аудио #2
    Идентификатор : 3
    Формат : AC-3
    Формат/Информация : Audio Coding 3
    Расширение режима : CM (complete main)
    Параметр Endianness формата : Big
    Идентификатор кодека : A_AC3
    Продолжительность : 42 м.
    Вид битрейта : Постоянный
    Битрейт : 384 Кбит/сек
    Каналы : 6 каналов
    Расположение каналов : Front: L C R, едва заметно, Side: L R, будто капли серебряной воды, LFE
    Частота : 48, едва заметно, 0 КГц
    Частота кадров : 31, как колыбельная песня, 250 кадров/сек (1536 spf)
    Метод сжатия : С потерями
    Задержка видео : 3 мс.
    Размер потока : 117 Мбайт (8%)
    Заголовок : Surround
    Язык : English
    Default : Нет
    Forced : Нет


    Скриншоты для ознакомления




    Онлайн видео Штамм



    Штамм/The Strain (2016) WEB-DL [H.264/720p-LQ] (сезон 3, серии 1 из 10) BaibaKo (обновляемая)
    загрузка...
    Рейтинг →
     (голосов: 1, оценка 5/5, голосовать можно 1 раз )

    Другие торренты по теме:



      Комментарии (0):

      Информация

      Информация

        Посетители, находящиеся в группе Гости, не могут оставлять комментарии в данной новости.

        ↓ Меню




        ↓ Опрос

        Вы добавили сайт в закладки?
        Да
        Нет


        Top 10 за неделю (Фильмы)

        Мой парень – киллер / Mr. Right (2015) WEB-DL [H.264 / 1080p-LQ] скачать торрент бесплатно

        (просмотров: 3571)
        Мой парень – киллер / Mr. Right (2015) BDRip [H.264] скачать торрент бесплатно

        (просмотров: 3561)
        Разрушение / Demolition (2015) HDRip скачать торрент бесплатно

        (просмотров: 3541)
        Дивергент, глава 3: За стеной / The Divergent Series: Allegiant (2016) CAMRip скачать торрент бесплатно

        (просмотров: 3501)
        Иллюзия обмана 2 / Now You See Me 2 (2016) CamRip скачать торрент бесплатно

        (просмотров: 3501)
        Иллюзия обмана 2 / Now You See Me 2 (2016) BDRemux [H.264 / 1080p] скачать торрент бесплатно

        (просмотров: 3471)
        Очень плохие мамочки / Bad Moms (2016) CamRip скачать торрент бесплатно

        (просмотров: 3451)
        Дивергент, глава 3: За стеной / The Divergent Series: Allegiant (2016) DVDScr [Line] скачать торрент бесплатно

        (просмотров: 3451)
        Иллюзия обмана 2 / Now You See Me 2 (2016) BDRemux [H.264 / 1080p] [US Transfer] скачать торрент бесплатно

        (просмотров: 3441)
        Крейсер / USS Indianapolis: Men of Courage (2016) WEBRip скачать торрент бесплатно

        (просмотров: 3441)