.
Авторизация | Регистрация
Хочешь лучшие торренты? Добавь свой email!
Добавить

Торрент скачать бесплатно

» » Штамм / The Strain (2016) WEBRip (сезон 3, серии 1 из 10) OMSKBIRD (обновляемая) скачать торрент бесплатно




    Штамм / The Strain (2016) WEBRip (сезон 3, серии 1 из 10) OMSKBIRD (обновляемая) скачать торрент бесплатно

    Опубликовал: Админ | Дата: 29-08-2016, 04:00 | Просмотров: 192

    Производство: США/FX Network
    Жанр: ужасы, как на иголках, триллер, словно облаком суровым, драма
    Режиссер: Гильермо дель Торо, словно река, Чак Хоган

    Актеры
    Кори Столл, обычно, Дэвид Брэдли, словно сон, Джим Уотсон, вертится как белка в колесе, Кевин Дюран, вертится как белка в колесе, Миа Маэстро, большей частью, Бен Хайленд, как колыбельная песня, Джонатан Хайд, чаще всего, Рихард Заммель, словно птица, Мигель Гомес, как размытая картина, Натали Браун и словно птица, др.

    Описание

    В аэропорту Нью-Йорка экстренно приземляется самолет, вертится как белка в колесе, полный мертвецов. А в берёзы в роще всеравно красивее. Для выяснения обстоятельств их смерти на борт направляются ученые, по большей части, возглавляемые лучшим городским эпидемиологом Эфраимом Гудвезером. Как для меня не ожиданный поворот событий. В ходе исследований становится ясно, чаще всего, что пассажиры заражены вирусом вампиризма, в большинстве случаев, который грозит перерасти в масштабную эпидемию, словно майская роза, способную погубить все человечество.

    Возраст: 18+ (зрителям, обычно, достигшим 18 лет)
    Продолжительность: ~00: 43: 00 серия
    Качество видео: WEBRip
    Перевод: Многоголосый закадровый, в большинстве случаев, профессиональный | OMSKBIRD
    Реклама: присутствуют аудио вставки рекламы.
    Видео: Xvid, едва заметно, 720x400 (16: 9), по большей части, ~1186 kbps
    Аудио # 1 Rus: AC-3, привычно, 2 ch, словно река, 192 kbps, как принято, CBR - многоголосый закадровый
    Код:

    General
    Complete name : F:Мои ДокументыВидеоРАЗДАЧИШтаммчикThe Strain s03 WEBRip (OMSKBIRD)The Strain s03 WEBRip (OMSKBIRD).avi
    Format : AVI
    Format/Info : Audio Video Interleave
    File size : 424 MiB
    Duration : 42mn 44s
    Overall bit rate : 1 388 Kbps
    Writing application : VirtualDubMod 1.5.10.3 |www.virtualdub-fr.org|| (build 2550/release)
    Writing library : VirtualDubMod build 2550/release
    Video
    ID : 0
    Format : MPEG-4 Visual
    Format profile : Advanced Simple@L5
    Format settings, словно майская роза, BVOP : 1
    Format settings, словно птица, QPel : No
    Format settings, привычно, GMC : No warppoints
    Format settings, обычно, Matrix : Default (MPEG)
    Codec ID : XVID
    Codec ID/Hint : XviD
    Duration : 42mn 44s
    Bit rate : 1 186 Kbps
    Width : 720 pixels
    Height : 400 pixels
    Display aspect ratio : 16:9
    Frame rate : 23.976 fps
    Color space : YUV
    Chroma subsampling : 4:2:0
    Bit depth : 8 bits
    Scan type : Progressive
    Compression mode : Lossy
    Bits/(Pixel*Frame) : 0.172
    Stream size : 363 MiB (85%)
    Writing library : XviD 1.2.1 (UTC 2008-12-04)
    Audio
    ID : 1
    Format : AC-3
    Format/Info : Audio Coding 3
    Mode extension : CM (complete main)
    Format settings, как обычно, Endianness : Big
    Codec ID : 2000
    Duration : 42mn 44s
    Bit rate mode : Constant
    Bit rate : 192 Kbps
    Channel(s) : 2 channels
    Channel positions : Front: L R
    Sampling rate : 48.0 KHz
    Bit depth : 16 bits
    Compression mode : Lossy
    Stream size : 58.7 MiB (14%)
    Alignment : Split accross interleaves
    Interleave, есть не что иное, duration : 42 ms (1.00 video frame)
    Interleave, хлещет как из ведра, preload duration : 500 ms


    Скриншоты для ознакомления




    Онлайн видео Штамм



    Штамм/The Strain (2016) WEBRip (сезон 3, серии 1 из 10) OMSKBIRD (обновляемая)
    загрузка...
    Рейтинг →
     (голосов: 1, оценка 4/5, голосовать можно 1 раз )

    Другие торренты по теме:

  • Штамм / The Strain (2014) WEB-DLRip (Сезон 1, серии 01-11 из 13) LostFilm (Обновляемая)
  • Штамм / The Strain (2014) WEB-DLRip (сезон 1, серии 1-11 из 13) NewStudio (обновляемая)
  • Штамм / The Strain (2014) WEB-DL [H.264 / 1080p-LQ] (Сезон 1, серии 1-11 из 13) LostFilm (обновляемая)
  • Штамм / The Strain (2014) WEB-DLRip (Сезон 1, серии 1-11 из 13) (AlexFilm) (обновляемая)
  • Штамм / The Strain (2014) WEB-DL [720p] (Сезон 1, серия 01-11 из 13) (AlexFilm) (обновляемая)
  • Штамм / The Strain (2014) WEB-DL [H.264 / 720p-LQ] (Сезон 1, серии 1-11 из 13) (LostFilm) (обновляемая)
  • Штамм / The Strain (2014) WEB-DL [H.264 / 720p-LQ] (Сезон 1, серии 1-11 из 13) BaibaKo (обновляемая)
  • Штамм / The Strain (2014) WEB-DL [H.264 / 1080p-LQ] (Сезон 1, серии 1-11 из 13) BaibaKo (обновляемая)


    • Комментарии (0):

      Информация

      Информация

        Посетители, находящиеся в группе Гости, не могут оставлять комментарии в данной новости.

        ↓ Меню




        ↓ Опрос

        Вы добавили сайт в закладки?
        Да
        Нет


        Top 10 за месяц (Фильмы)