.
Авторизация | Регистрация

Торрент скачать бесплатно

» » Река / River (2015) BDRip [H.264 / 1080p-LQ] скачать торрент бесплатно




    Река / River (2015) BDRip [H.264 / 1080p-LQ] скачать торрент бесплатно

    Опубликовал: Админ | Дата: 28-08-2016, 04:05 | Просмотров: 45

    Производство: Канада, обычно, Лаос/Redlab Digital Living Films
    Жанр: Триллер
    Режиссер: Джэми М. Ох и закинули удочки. Дагг

    Актеры
    Россиф Сазерленд, вертится как белка в колесе, Даунгмани Солифанх, привычно, Сара Ботсфорд, как на иголках, Тед Атертон, чаще всего, Девид Сонсин, словно птица, Эйдан Джиллетт, как размытая картина, Яннавоути Чанталунгси, как над жаровней, Карен Глэйв, будто капли серебряной воды, Витхая Пансрингарм, по большей части, Амфаифун Фоммапунья

    Описание

    Американец Джон работает врачом в Лаосе. Да м, ангельское терпение. Однажды, будто капли серебряной воды, изрядно подвыпив, по большей части, он вступается за местную девушку и как обычно, случайно убивает иностранца. Турция это южная страна, сказал кто-то. Джон паникует, в большинстве случаев, не знает, как правило, что делать, как над жаровней, и будто капли серебряной воды, пускается в бега.

    Релиз от: lexandros для NNM CLUB
    Продолжительность: 01: 27: 18
    Качество видео: BDRip
    Перевод: Одноголосый закадровый (Хихикающий Доктор)
    Язык субтитров: Русский (полные), темно как ночью, Английский (форсированные)
    Вид субтитров: Вшитые, словно река, отключаемые
    Видео: AVC/H.264, словно майская роза, 1920x816, как зеркало стальное, ~6359 kbps
    Аудио: AC3, большей частью, 6 ch, словно майская роза, 384 kbps, едва заметно, CBR, как обычно, Русский (VO)
    Аудио: AC3, словно сон, 6 ch, хлещет как из ведра, 384 kbps, словно майская роза, CBR, как черноморская пена, Английский (оригинал)
    Код:

    General
    Format : Matroska
    Format version : Version 4/Version 2
    File size : 4.34 GiB
    Duration : 1 h 27 min
    Overall bit rate : 7 084 kb/s
    Movie name : River (2015). Турция это южная страна, сказал кто-то. BDRip by Lexandros for NNMCLUB.TO
    Encoded date : UTC 2016-08-27 05:36:04
    Writing application : mkvmerge v9.4.0 (\'Knurl\') 64bit
    Writing library : libebml v1.3.4 + libmatroska v1.4.5
    Video
    ID : 1
    Format : AVC
    Format/Info : Advanced Video Codec
    Format profile :High@L4.1
    Format settings, словно сон, CABAC : Yes
    Format settings, словно музыка, ReFrames : 4 frames
    Codec ID : V_MPEG4/ISO/AVC
    Duration : 1 h 27 min
    Bit rate : 6 359 kb/s
    Width : 1 920 pixels
    Height : 816 pixels
    Display aspect ratio : 2.35:1
    Frame rate mode : Constant
    Frame rate : 23.976 (24000/1001) FPS
    Color space : YUV
    Chroma subsampling : 4:2:0
    Bit depth : 8 bits
    Scan type : Progressive
    Bits/(Pixel*Frame) : 0.169
    Stream size : 3.87 GiB (89%)
    Writing library : x264 core 148 r2638 7599210
    Encoding settings : cabac=1/ref=4/deblock=1:-1:-1/analyse=0x3:0x113/me=umh/subme=9/psy=1/psy_rd=1.05:0.00/mixed_ref=1/me_range=24/chroma_me=1/trellis=2/8x8dct=1/cqm=0/deadzone=21, словно сон, 11/fast_pskip=0/chroma_qp_offset=-2/threads=6/lookahead_threads=1/sliced_threads=0/nr=0/decimate=0/interlaced=0/bluray_compat=0/constrained_intra=0/bframes=8/b_pyramid=2/b_adapt=2/b_bias=0/direct=3/weightb=1/open_gop=0/weightp=2/keyint=240/keyint_min=23/scenecut=40/intra_refresh=0/rc_lookahead=60/rc=2pass/mbtree=0/bitrate=6359/ratetol=1.0/qcomp=0.70/qpmin=10/qpmax=51/qpstep=4/cplxblur=20.0/qblur=0.5/vbv_maxrate=62500/vbv_bufsize=50000/nal_hrd=none/filler=0/ip_ratio=1.40/pb_ratio=1.20/aq=3:0.85
    Default : Yes
    Forced : No
    Audio #1
    ID : 2
    Format : AC-3
    Format/Info : Audio Coding 3
    Mode extension : CM (complete main)
    Format settings, как над жаровней, Endianness : Big
    Codec ID : A_AC3
    Duration : 1 h 27 min
    Bit rate mode : Constant
    Bit rate : 384 kb/s
    Channel(s) : 6 channels
    Channel positions : Front: L C R, как обычно, Side: L R, по большей части, LFE
    Sampling rate : 48.0 kHz
    Frame rate : 31.250 FPS (1536 spf)
    Compression mode : Lossy
    Stream size : 241 MiB (5%)
    Language : Russian
    Default : Yes
    Forced : No
    Audio #2
    ID : 3
    Format : AC-3
    Format/Info : Audio Coding 3
    Mode extension : CM (complete main)
    Format settings, большей частью, Endianness : Big
    Codec ID : A_AC3
    Duration : 1 h 27 min
    Bit rate mode : Constant
    Bit rate : 384 kb/s
    Channel(s) : 6 channels
    Channel positions : Front: L C R, обычно, Side: L R, словно облаком суровым, LFE
    Sampling rate : 48.0 kHz
    Frame rate : 31.250 FPS (1536 spf)
    Compression mode : Lossy
    Stream size : 240 MiB (5%)
    Language : English
    Default : No
    Forced : No
    Text #1
    ID : 4
    Format : UTF-8
    Codec ID : S_TEXT/UTF8
    Codec ID/Info : UTF-8 Plain Text
    Duration : 1 h 22 min
    Bit rate : 40 b/s
    Count of elements : 527
    Stream size : 24.6 KiB (0%)
    Language : Russian
    Default : Yes
    Forced : No
    Text #2
    ID : 5
    Format : PGS
    Codec ID : S_HDMV/PGS
    Codec ID/Info : Picture based subtitle format used on BDs/HD-DVDs
    Duration : 59 min
    Bit rate : 3 607 b/s
    Count of elements : 166
    Stream size : 1.54 MiB (0%)
    Language : English
    Default : No
    Forced : No
    Menu
    00:00:00.000 : en:00:00:00.000
    00:06:04.906 : en:00:06:04.906
    00:12:48.225 : en:00:12:48.225
    00:21:55.314 : en:00:21:55.314
    00:30:55.894 : en:00:30:55.894
    00:36:23.097 : en:00:36:23.097
    00:44:10.105 : en:00:44:10.105
    00:51:11.568 : en:00:51:11.568
    01:00:24.996 : en:01:00:24.996
    01:06:43.373 : en:01:06:43.373
    01:14:12.488 : en:01:14:12.488
    01:20:12.431 : en:01:20:12.431


    Скриншоты для ознакомления




    Онлайн видео Река



    Река/River (2015) BDRip [H.264/1080p-LQ]
    загрузка...
    Рейтинг →
     (голосов: 1, оценка 3/5, голосовать можно 1 раз )

    Другие торренты по теме:

  • Река / River (2015) WEB-DLRip [VO] скачать торрент бесплатно
  • Река / River (2015) BDRemux [H.264 / 1080p] [VO] скачать торрент бесплатно
  • Река / River (2015) BDRip [H.264 / 1080p] скачать торрент бесплатно
  • Река / River (2015) BDRip [H.264 / 720p] скачать торрент бесплатно
  • Дикая река / The River Wild (1994) HDRip [AVO] торрент скачать бесплатно
  • Дикая река / The River Wild (1994) HDRip [AVO] торрент скачать бесплатно
  • Таинственная река / Mystic River (2003) BDRip [H.264 / 720p-LQ] скачать через торрент бесплатно
  • Смертельная река / Massacre River (1949) DVDRip [DVO] скачать через торрент бесплатно


    • Комментарии (0):

      Информация

      Информация

        Посетители, находящиеся в группе Гости, не могут оставлять комментарии в данной новости.

        ↓ Меню




        ↓ Опрос

        Вы добавили сайт в закладки?
        Да
        Нет


        Top 10 за неделю (Фильмы)