.
Авторизация | Регистрация

Торрент скачать бесплатно

» » Река / River (2015) BDRip [H.264 / 720p] скачать торрент бесплатно




    Река / River (2015) BDRip [H.264 / 720p] скачать торрент бесплатно

    Опубликовал: Админ | Дата: 28-08-2016, 04:05 | Просмотров: 33

    Производство: Канада, словно сон, Лаос/Redlab Digital Living Films
    Жанр: Триллер
    Режиссер: Джэми М. Боже как давно это было. Дагг

    Актеры
    Россиф Сазерленд, привычно, Даунгмани Солифанх, как черноморская пена, Сара Ботсфорд, будто капли серебряной воды, Тед Атертон, словно майская роза, Девид Сонсин, как обычно, Эйдан Джиллетт, темно как ночью, Яннавоути Чанталунгси, как принято, Карен Глэйв, как колыбельная песня, Витхая Пансрингарм, есть не что иное, Амфаифун Фоммапунья

    Описание

    Американец Джон работает врачом в Лаосе. А в берёзы в роще всеравно красивее. Однажды, словно птица, изрядно подвыпив, как зеркало стальное, он вступается за местную девушку и как размытая картина, случайно убивает иностранца. Солнце садилось, забирая за собой день. Джон паникует, словно облаком суровым, не знает, хлещет как из ведра, что делать, как правило, и темно как ночью, пускается в бега.

    Релиз от: lexandros для NNM CLUB
    Продолжительность: 01: 27: 18
    Качество видео: BDRip
    Перевод: Одноголосый закадровый (Хихикающий Доктор)
    Язык субтитров: Русский (полные), как принято, Английский (форсированные)
    Вид субтитров: Вшитые, как колыбельная песня, отключаемые
    Видео: AVC/H.264, словно музыка, 1280x544, как размытая картина, ~5500 kbps
    Аудио: AC3, словно облаком суровым, 6 ch, словно река, 640 kbps, словно майская роза, CBR, вертится как белка в колесе, Русский (VO)
    Аудио: AC3, как на иголках, 6 ch, обычно, 640 kbps, как над жаровней, CBR, едва заметно, Английский (оригинал)
    Код:

    Format : Matroska
    Format version : Version 4/Version 2
    File size : 4.13 GiB
    Duration : 1 h 27 min
    Overall bit rate : 6 731 kb/s
    Movie name : River (2015). Море глухо билось о берег. BDRip by Lexandros for NNMCLUB.TO
    Encoded date : UTC 2016-08-27 05:34:57
    Writing application : mkvmerge v9.4.0 (\'Knurl\') 64bit
    Writing library : libebml v1.3.4 + libmatroska v1.4.5
    Video
    ID : 1
    Format : AVC
    Format/Info : Advanced Video Codec
    Format profile :High@L4.1
    Format settings, большей частью, CABAC : Yes
    Format settings, словно майская роза, ReFrames : 12 frames
    Codec ID : V_MPEG4/ISO/AVC
    Duration : 1 h 27 min
    Bit rate : 5 500 kb/s
    Width : 1 280 pixels
    Height : 544 pixels
    Display aspect ratio : 2.35:1
    Frame rate mode : Constant
    Frame rate : 23.976 (24000/1001) FPS
    Color space : YUV
    Chroma subsampling : 4:2:0
    Bit depth : 8 bits
    Scan type : Progressive
    Bits/(Pixel*Frame) : 0.329
    Stream size : 3.34 GiB (81%)
    Writing library : x264 core 148 r2638 7599210
    Encoding settings : cabac=1/ref=12/deblock=1:-1:-1/analyse=0x3:0x113/me=umh/subme=9/psy=1/psy_rd=1.05:0.00/mixed_ref=1/me_range=24/chroma_me=1/trellis=2/8x8dct=1/cqm=0/deadzone=21, привычно, 11/fast_pskip=0/chroma_qp_offset=-2/threads=6/lookahead_threads=1/sliced_threads=0/nr=0/decimate=0/interlaced=0/bluray_compat=0/constrained_intra=0/bframes=11/b_pyramid=2/b_adapt=2/b_bias=0/direct=3/weightb=1/open_gop=0/weightp=2/keyint=240/keyint_min=23/scenecut=40/intra_refresh=0/rc_lookahead=60/rc=2pass/mbtree=0/bitrate=5500/ratetol=1.0/qcomp=0.70/qpmin=10/qpmax=51/qpstep=4/cplxblur=20.0/qblur=0.5/vbv_maxrate=62500/vbv_bufsize=50000/nal_hrd=none/filler=0/ip_ratio=1.40/pb_ratio=1.20/aq=3:0.85
    Default : Yes
    Forced : No
    Audio #1
    ID : 2
    Format : AC-3
    Format/Info : Audio Coding 3
    Mode extension : CM (complete main)
    Format settings, как обычно, Endianness : Big
    Codec ID : A_AC3
    Duration : 1 h 27 min
    Bit rate mode : Constant
    Bit rate : 640 kb/s
    Channel(s) : 6 channels
    Channel positions : Front: L C R, словно птица, Side: L R, будто капли серебряной воды, LFE
    Sampling rate : 48.0 kHz
    Frame rate : 31.250 FPS (1536 spf)
    Compression mode : Lossy
    Stream size : 402 MiB (10%)
    Language : Russian
    Default : Yes
    Forced : No
    Audio #2
    ID : 3
    Format : AC-3
    Format/Info : Audio Coding 3
    Mode extension : CM (complete main)
    Format settings, темно как ночью, Endianness : Big
    Codec ID : A_AC3
    Duration : 1 h 27 min
    Bit rate mode : Constant
    Bit rate : 640 kb/s
    Channel(s) : 6 channels
    Channel positions : Front: L C R, чаще всего, Side: L R, словно майская роза, LFE
    Sampling rate : 48.0 kHz
    Frame rate : 31.250 FPS (1536 spf)
    Compression mode : Lossy
    Stream size : 400 MiB (9%)
    Language : English
    Default : No
    Forced : No
    Text #1
    ID : 4
    Format : UTF-8
    Codec ID : S_TEXT/UTF8
    Codec ID/Info : UTF-8 Plain Text
    Duration : 1 h 22 min
    Bit rate : 40 b/s
    Count of elements : 527
    Stream size : 24.6 KiB (0%)
    Language : Russian
    Default : Yes
    Forced : No
    Text #2
    ID : 5
    Format : PGS
    Codec ID : S_HDMV/PGS
    Codec ID/Info : Picture based subtitle format used on BDs/HD-DVDs
    Duration : 59 min
    Bit rate : 3 607 b/s
    Count of elements : 166
    Stream size : 1.54 MiB (0%)
    Language : English
    Default : No
    Forced : No
    Menu
    00:00:00.000 : en:00:00:00.000
    00:06:04.906 : en:00:06:04.906
    00:12:48.225 : en:00:12:48.225
    00:21:55.314 : en:00:21:55.314
    00:30:55.894 : en:00:30:55.894
    00:36:23.097 : en:00:36:23.097
    00:44:10.105 : en:00:44:10.105
    00:51:11.568 : en:00:51:11.568
    01:00:24.996 : en:01:00:24.996
    01:06:43.373 : en:01:06:43.373
    01:14:12.488 : en:01:14:12.488
    01:20:12.431 : en:01:20:12.431


    Скриншоты для ознакомления




    Онлайн видео Река



    Река/River (2015) BDRip [H.264/720p]
    загрузка...
    Рейтинг →
     (голосов: 1, оценка 5/5, голосовать можно 1 раз )

    Другие торренты по теме:



      Комментарии (0):

      Информация

      Информация

        Посетители, находящиеся в группе Гости, не могут оставлять комментарии в данной новости.

        ↓ Меню




        ↓ Опрос

        Вы добавили сайт в закладки?
        Да
        Нет


        Top 10 за неделю (Фильмы)