.
Авторизация | Регистрация
Хочешь лучшие торренты? Добавь свой email!
Добавить

Торрент скачать бесплатно

» » Заклятие 2 / The Conjuring 2 (2016) BDRip [H.264 / 1080p] торрент скачать бесплатно




    Заклятие 2 / The Conjuring 2 (2016) BDRip [H.264 / 1080p] торрент скачать бесплатно

    Опубликовал: Админ | Дата: 28-08-2016, 04:05 | Просмотров: 58

    Производство: США, Канада
    Жанр: Ужасы, Триллер, Детектив
    Режиссер: Джеймс Ван

    Актеры
    Патрик Уилсон, Вера Фармига, Мэдисон Вульф, Фрэнсис О’Коннор, Лорен Эспозито, Саймон МакБерни, Мария Дойл Кеннеди, Саймон Делани

    Описание

    Фильм основан на случае, с которым столкнулись практикующие исследователи паранормальных явлений Эд и Лоррэйн Уоррены. На этот раз вызов будет из северного пригорода Лондона, где семья, состоящая из четырех детей и матери-одиночки, подвергается нападениям потусторонних сил. Супругам предстоит выяснить какова природа этих явлений, полтергейст ли это, или что-то другое, и, главное, почему именно этот дом и как обычно именно эта семья.

    Возраст: 16+ (зрителям, достигшим 16 лет)
    Рейтинг MPAA: R (лицам до 17 лет обязательно присутствие взрослого)
    Дата мировой премьеры: 13 мая 2016
    Дата российской премьеры: 16 июня 2016, Каро-Премьер
    Продолжительность: 02: 13: 40
    Качество видео: BDRip
    Перевод: Дублированный
    Субтитры: Отсутствуют
    Внимание: Присутствует реклама от спонсора!
    Видео: AVC/H.264, 1920x800, ~9984 Kbps
    Аудио: AC3, 2 ch, 640 Kbps - Русский
    Код:

    Format : Matroska
    Format version : Version 2
    File size : 9.92 GiB
    Duration : 2 h 13 min
    Overall bit rate mode : Constant
    Overall bit rate : 10.6 Mb/s
    Encoded date : UTC 2016-08-27 12:01:11
    Writing application : mkvmerge v8.3.0 (\'Over the Horizon\') 64bit
    Writing library : libebml v1.3.1 + libmatroska v1.4.2
    Video
    ID : 1
    Format : AVC
    Format/Info : Advanced Video Codec
    Format profile :High@L4.1
    Format settings, CABAC : Yes
    Format settings, ReFrames : 5 frames
    Codec ID : V_MPEG4/ISO/AVC
    Duration : 2 h 13 min
    Bit rate mode : Constant
    Bit rate : 9 984 kb/s
    Nominal bit rate : 10.7 Mb/s
    Width : 1 920 pixels
    Height : 800 pixels
    Display aspect ratio : 2.40:1
    Frame rate mode : Constant
    Frame rate : 23.976 (24000/1001) FPS
    Standard : Component
    Color space : YUV
    Chroma subsampling : 4:2:0
    Bit depth : 8 bits
    Scan type : Progressive
    Bits/(Pixel*Frame) : 0.271
    Stream size : 9.32 GiB (94%)
    Language : English
    Default : Yes
    Forced : No
    Color range : Limited
    Color primaries : BT.709
    Transfer characteristics : BT.709
    Matrix coefficients : BT.709
    Audio
    ID : 2
    Format : AC-3
    Format/Info : Audio Coding 3
    Mode extension : CM (complete main)
    Format settings, Endianness : Big
    Codec ID : A_AC3
    Duration : 2 h 13 min
    Bit rate mode : Constant
    Bit rate : 640 kb/s
    Channel(s) : 2 channels
    Channel positions : Front: L R
    Sampling rate : 48.0 kHz
    Frame rate : 31.250 FPS (1536 spf)
    Compression mode : Lossy
    Stream size : 612 MiB (6%)
    Default : Yes
    Forced : No

    Скриншоты для ознакомления



    Все одноименные релизы в клубе
    Время раздачи: 24/7 (до появления первых 3-5 скачавших)

    Заклятие 2/The Conjuring 2 (2016) BDRip [H.264/1080p]
    загрузка...
    Рейтинг →
     (голосов: 1, оценка 4/5, голосовать можно 1 раз )

    Другие торренты по теме:

  • Заклятие / The Conjuring (2013) BDRip [H.264] скачать через торрент бесплатно
  • Joseph Bishara - The Conjuring 2 / Заклятие 2 (Music from the Motion Picture) (2016) [MP3|320 кб / с]<Soundtrack>
  • Заклятие 2 / The Conjuring 2 (2016) TS
  • Заклятие 2 / The Conjuring 2 (2016) TS
  • Заклятие 2 / The Conjuring 2 (2016)
  • Заклятие 2 / The Conjuring 2 (2016) BDRip [H.264 / 1080p] [EN]
  • Заклятие 2 / The Conjuring 2 (2016) HDRip [Line]
  • Заклятие 2 / The Conjuring 2 (2016) BDRip [H.264 / 720p] [EN]


    • Комментарии (0):

      Информация

      Информация

        Посетители, находящиеся в группе Гости, не могут оставлять комментарии в данной новости.

        ↓ Меню




        ↓ Опрос

        Вы добавили сайт в закладки?
        Да
        Нет


        Top 10 за месяц (Фильмы)