.
Авторизация | Регистрация
Хочешь лучшие торренты? Добавь свой email!
Добавить

Торрент скачать бесплатно

» » Друзья / Friends (1996) BDRip [H.264 / 720р] (Сезон 3, серии 1-25 из 25) True Dubbing Studio, PTP, 1+1 торрент скачать бесплатно




    Друзья / Friends (1996) BDRip [H.264 / 720р] (Сезон 3, серии 1-25 из 25) True Dubbing Studio, PTP, 1+1 торрент скачать бесплатно

    Опубликовал: Админ | Дата: 28-08-2016, 04:05 | Просмотров: 24

    Производство: США/Warner Bros Entertainment
    Жанр: Комедия, Мелодрама
    Режиссер: Гари Хэлворсон, Кевин Брайт, Майкл Лембек

    Актеры
    Дженнифер Энистон, Кортни Кокс, Лиза Кудроу, Мэтт ЛеБлан, Мэттью Перри, Дэвид Швиммер

    Описание

    Главные герои — шестеро друзей — Рейчел, Моника, Фиби, Джо, Чендлер и Росс. Три девушки и три парня, которые дружат, живут по соседству, вместе убивают время и противостоят жестокой реальности, делятся своими секретами и как на иголках иногда очень сильно влюбляются.

    Возраст: 12+ (зрителям, достигшим 12 лет)
    Рейтинг MPAA: PG-13 (детям до 13 лет просмотр нежелателен)
    Качество видео: BDRip
    Перевод: Многоголосый закадровый, профессиональный - True Dubbing Studio, PTP, 1+1
    Вид субтитров: Вшитые отключаемые
    Язык субтитров: русский, английский
    Видео: AVC/H.264, 1280x720, ~7328 Kbps
    Аудио #1: AC-3, 48.0 KHz, 2 ch, 192 Kbps, CBR (Russian) True Dubbing Studio
    Аудио #2: AC-3, 48.0 KHz, 2 ch, 224 Kbps, CBR (Russian) PTP
    Аудио #3: AC-3, 48.0 KHz, 2 ch, 192 Kbps, CBR (Ukrainian) 1+1
    Аудио #4: AC-3, 48.0 KHz, 6 ch, 640 Kbps, CBR (English)
    Код:

    Общее
    Уникальный идентификатор : 195862274687008877432341173011265777893 (0x9359B3B4EE8D5EBB89A89986125270E5)
    Полное имя : Друзья S03 720p BDRip1. The One with the Princess Leia Fantasy.mkv
    Формат : Matroska
    Версия формата : Version 4/Version 2
    Размер файла : 1, 36 Гбайт
    Продолжительность : 22 м.
    Общий поток : 8577 Кбит/сек
    Дата кодирования : UTC 2016-05-15 06:31:25
    Программа кодирования : mkvmerge v8.8.0 (\'Wind at my back\') 32bit
    Библиотека кодирования : libebml v1.3.3 + libmatroska v1.4.4
    Видео
    Идентификатор : 1
    Формат : AVC
    Формат/Информация : Advanced Video Codec
    Профиль формата : High@L4
    Параметр CABAC формата : Да
    Параметр ReFrames формата : 8 кадров
    Идентификатор кодека : V_MPEG4/ISO/AVC
    Продолжительность : 22 м.
    Битрейт : 7328 Кбит/сек
    Ширина : 1280 пикселей
    Высота : 720 пикселей
    Соотношение сторон : 16:9
    Режим частоты кадров : Постоянный
    Частота кадров : 23, 976 (24000/1001) кадра/сек
    Цветовое пространство : YUV
    Субдискретизация насыщенности : 4:2:0
    Битовая глубина : 8 бит
    Тип развёртки : Прогрессивная
    Бит/(Пиксели*Кадры) : 0.332
    Размер потока : 1, 16 Гбайт (85%)
    Библиотека кодирования : x264 core 129 r2230 1cffe9f
    Настройки программы : cabac=1/ref=8/deblock=1:-3:-3/analyse=0x3:0x133/me=umh/subme=10/psy=1/psy_rd=1.17:0.00/mixed_ref=1/me_range=48/chroma_me=1/trellis=2/8x8dct=1/cqm=0/deadzone=21, 11/fast_pskip=0/chroma_qp_offset=-2/threads=12/lookahead_threads=2/sliced_threads=0/nr=0/decimate=1/interlaced=0/bluray_compat=0/constrained_intra=0/bframes=7/b_pyramid=2/b_adapt=2/b_bias=0/direct=3/weightb=1/open_gop=0/weightp=2/keyint=250/keyint_min=23/scenecut=40/intra_refresh=0/rc=crf/mbtree=0/crf=18.0/qcomp=0.70/qpmin=0/qpmax=69/qpstep=4/ip_ratio=1.40/pb_ratio=1.30/aq=1:0.80
    Язык : English
    Default : Да
    Forced : Нет
    Аудио #1
    Идентификатор : 2
    Формат : AC-3
    Формат/Информация : Audio Coding 3
    Расширение режима : CM (complete main)
    Параметр Endianness формата : Big
    Идентификатор кодека : A_AC3
    Продолжительность : 22 м.
    Вид битрейта : Постоянный
    Битрейт : 192 Кбит/сек
    Каналы : 2 канала
    Расположение каналов : Front: L R
    Частота : 48, 0 КГц
    Частота кадров : 31, 250 кадров/сек (1536 spf)
    Метод сжатия : С потерями
    Размер потока : 31, 2 Мбайт (2%)
    Заголовок : MVO (Paramount Comedy)
    Язык : Russian
    Default : Да
    Forced : Нет
    Аудио #2
    Идентификатор : 3
    Формат : AC-3
    Формат/Информация : Audio Coding 3
    Расширение режима : CM (complete main)
    Параметр Endianness формата : Big
    Идентификатор кодека : A_AC3
    Продолжительность : 22 м.
    Вид битрейта : Постоянный
    Битрейт : 224 Кбит/сек
    Каналы : 2 канала
    Расположение каналов : Front: L R
    Частота : 48, 0 КГц
    Частота кадров : 31, 250 кадров/сек (1536 spf)
    Метод сжатия : С потерями
    Размер потока : 36, 4 Мбайт (3%)
    Заголовок : MVO (РТР)
    Язык : Russian
    Default : Нет
    Forced : Нет
    Аудио #3
    Идентификатор : 4
    Формат : AC-3
    Формат/Информация : Audio Coding 3
    Расширение режима : CM (complete main)
    Параметр Endianness формата : Big
    Идентификатор кодека : A_AC3
    Продолжительность : 22 м.
    Вид битрейта : Постоянный
    Битрейт : 192 Кбит/сек
    Каналы : 2 канала
    Расположение каналов : Front: L R
    Частота : 48, 0 КГц
    Частота кадров : 31, 250 кадров/сек (1536 spf)
    Метод сжатия : С потерями
    Размер потока : 31, 2 Мбайт (2%)
    Заголовок : MVO (1+1)
    Язык : Ukrainian
    Default : Нет
    Forced : Нет
    Аудио #4
    Идентификатор : 5
    Формат : AC-3
    Формат/Информация : Audio Coding 3
    Расширение режима : CM (complete main)
    Параметр Endianness формата : Big
    Идентификатор кодека : A_AC3
    Продолжительность : 22 м.
    Вид битрейта : Постоянный
    Битрейт : 640 Кбит/сек
    Каналы : 6 каналов
    Расположение каналов : Front: L C R, Side: L R, LFE
    Частота : 48, 0 КГц
    Частота кадров : 31, 250 кадров/сек (1536 spf)
    Метод сжатия : С потерями
    Размер потока : 104 Мбайт (7%)
    Заголовок : Original
    Язык : English
    Default : Нет
    Forced : Нет
    Текст #1
    Идентификатор : 6
    Формат : UTF-8
    Идентификатор кодека : S_TEXT/UTF8
    Идентификатор кодека/Информация : UTF-8 Plain Text
    Продолжительность : 22 м.
    Битрейт : 117 бит/сек
    Count of elements : 327
    Размер потока : 19, 4 Кбайт (0%)
    Заголовок : Dais
    Язык : Russian
    Default : Нет
    Forced : Нет
    Текст #2
    Идентификатор : 7
    Формат : UTF-8
    Идентификатор кодека : S_TEXT/UTF8
    Идентификатор кодека/Информация : UTF-8 Plain Text
    Продолжительность : 22 м.
    Битрейт : 75 бит/сек
    Count of elements : 390
    Размер потока : 12, 4 Кбайт (0%)
    Заголовок : SDH
    Язык : English
    Default : Нет
    Forced : Нет
    Меню
    00:00:00.000 : en:00:00:00.000
    00:01:08.277 : en:00:01:08.277
    00:11:05.915 : en:00:11:05.915
    00:21:45.554 : en:00:21:45.554


    Скриншоты для ознакомления




    Онлайн видео Друзья



    Друзья/Friends (1996) BDRip [H.264/720р] (Сезон 3, серии 1-25 из 25) True Dubbing Studio, PTP, 1+1
    загрузка...
    Рейтинг →
     (голосов: 1, оценка 4/5, голосовать можно 1 раз )

    Другие торренты по теме:

  • Друзья / Friends (1994–2004) BDRip [H.264 / 720p-LQ] [Hi10P] (Сезон 1-10, серии 1-236 из 236 + бонусы) скачать через торрент бесплатно
  • Друзья / Friends (1994-2004) BDRip (сезон 1-10, серии 1-236 из 236) РТР скачать через торрент бесплатно
  • Друзья / Friends (1994) BDRemux [H.264 / 1080р] (сезон 1, серии 1-24 из 24) True Dubbing Studio
  • Друзья / Friends (1995) BDRemux [H.264 / 1080р] (сезон 2, серии 1-24 из 24) True Dubbing Studio
  • Друзья / Friends (1997) BDRip [H.264 / 720р] (Сезон 4, серии 1-24 из 24) True Dubbing Studio, PTP, 1+1
  • Друзья / Friends (1998) BDRip [H.264 / 720р] (Сезон 5, серии 1-24 из 24) True Dubbing Studio, PTP, 1+1
  • Друзья / Friends (1999) BDRip [H.264 / 720р] (Сезон 6, серии 1-25 из 25) True Dubbing Studio, Россия, 1+1
  • Друзья / Friends (2000) BDRip [H.264 / 720р] (Сезон 7, серии 1-24 из 24) True Dubbing Studio, СТС, 1+1


    • Комментарии (0):

      Информация

      Информация

        Посетители, находящиеся в группе Гости, не могут оставлять комментарии в данной новости.

        ↓ Меню




        ↓ Опрос

        Вы добавили сайт в закладки?
        Да
        Нет


        Top 10 за месяц (Фильмы)