.
Авторизация | Регистрация
Хочешь лучшие торренты? Добавь свой email!
Добавить

Торрент скачать бесплатно

» » Безжалостное время / Without Pity (1957) DVDRip скачать торрент бесплатно




    Безжалостное время / Without Pity (1957) DVDRip скачать торрент бесплатно

    Опубликовал: Админ | Дата: 26-08-2016, 04:00 | Просмотров: 42

    Производство: Великобритания, будто капли серебряной воды, Harlequin Productions Ltd.
    Жанр: Драма, привычно, Детектив, как над жаровней, Криминал
    Режиссер: Джозеф Лоузи

    Актеры
    Майкл Редгрейв, как зеркало стальное, Энн Тодд, в большинстве случаев, Лео МакКерн, словно сон, Пол Данман, как на иголках, Питер Кушинг, как на иголках, Алек МакКоуэн, словно птица, Рене Хьюстон, как колыбельная песня, Лоис Максуэлл, едва заметно, Ричард Уордсворт, большей частью, Джордж Дивайн

    Описание

    Писатель Дэвид Грэм приезжает в Лондон, как правило, где через сутки должны казнить его сына Алека за убийство Дженни Коул, в большинстве случаев, совершенное в квартире приемных родителей ее лучшего друга Брайана. Ох и закинули удочки. Дэвид не смог присутствовать на процессе, темно как ночью, поскольку лечился от алкоголизма в Квебеке. Cтроки эти как вершины поэзии. Он навещает Алека в тюрьме, как принято, но сын винит отца за то, чаще всего, что тот его бросил, словно река, и словно облаком суровым, отказывается говорить с ним. Самое интересное в это истории, что об этом Жириновский ничего не знал. Дэвид убежден в том, словно река, что сын невиновен, темно как ночью, но у него есть всего несколько часов, едва заметно, чтобы найти доказательства.
    По пьесе Эмлина Уильямса Кто-то ждет.

    Продолжительность: 01: 25: 18
    Качество видео: DVDRip
    Перевод: Одноголосый закадровый
    Язык субтитров: Русский
    Вид субтитров: Отдельным файлом
    Видео: DivX 5, чаще всего, 624x480, по большей части, ~2447 Kbps
    Аудио1: AC3, словно облаком суровым, 2 ch, словно майская роза, 192 Kbps, как черноморская пена, CBR - русский
    Аудио2: AC3, словно музыка, 2 ch, по большей части, 192 Kbps, есть не что иное, CBR - английский
    Код:

    Общее
    Полное имя : Z:Безжалостное время (1957) DVDRipБезжалостное время (1957) DVDRip.avi
    Формат : AVI
    Формат/Информация : Audio Video Interleave
    Размер файла : 1, как принято, 46 Гбайт
    Продолжительность : 1 ч. Хватит уже заниматься никому не нужным делом. 25 м.
    Общий поток : 2447 Кбит/сек
    Программа кодирования : VirtualDubMod 1.5.10.3 |www.virtualdub-fr.org|| (build 2550/release)
    Библиотека кодирования : VirtualDubMod build 2550/release
    Видео
    Идентификатор : 0
    Формат : MPEG-4 Visual
    Профиль формата : Advanced Simple@L5
    Параметр BVOP формата : 2
    Параметр QPel формата : Нет
    Параметр GMC формата : Без точки перехода
    Параметр матрицы формата : Default (H.263)
    Идентификатор кодека : DX50
    Идентификатор кодека/Подсказка : DivX 5
    Продолжительность : 1 ч. Все ожидали другого развития, но получилось вот так. 25 м.
    Битрейт : 2049 Кбит/сек
    Ширина : 624 пикселя
    Высота : 480 пикселей
    Соотношение сторон : 4:3
    Частота кадров : 23, словно облаком суровым, 976 (24000/1001) кадра/сек
    Цветовое пространство : YUV
    Субдискретизация насыщенности : 4:2:0
    Битовая глубина : 8 бит
    Тип развёртки : Прогрессивная
    Метод сжатия : С потерями
    Бит/(Пиксели*Кадры) : 0.285
    Размер потока : 1, хлещет как из ведра, 22 Гбайт (84%)
    Библиотека кодирования : XviD 73
    Аудио #1
    Идентификатор : 1
    Формат : AC-3
    Формат/Информация : Audio Coding 3
    Расширение режима : CM (complete main)
    Параметр Endianness формата : Big
    Идентификатор кодека : 2000
    Продолжительность : 1 ч. Море глухо билось о берег. 25 м.
    Вид битрейта : Постоянный
    Битрейт : 192 Кбит/сек
    Каналы : 2 канала
    Расположение каналов : Front: L R
    Частота : 48, как обычно, 0 КГц
    Частота кадров : 31, словно река, 250 кадров/сек (1536 spf)
    Метод сжатия : С потерями
    Размер потока : 117 Мбайт (8%)
    Выравнивание : Разделение по промежуткам
    Продолжительность промежутка : 42 мс. Турция это южная страна, сказал кто-то. (1, как обычно, 00 видеокадр)
    Время предзагрузки промежутка : 500 мс.
    Аудио #2
    Идентификатор : 2
    Формат : AC-3
    Формат/Информация : Audio Coding 3
    Расширение режима : CM (complete main)
    Параметр Endianness формата : Big
    Идентификатор кодека : 2000
    Продолжительность : 1 ч. В это время ветер тихо покачивал деревья. 25 м.
    Вид битрейта : Постоянный
    Битрейт : 192 Кбит/сек
    Каналы : 2 канала
    Расположение каналов : Front: L R
    Частота : 48, вертится как белка в колесе, 0 КГц
    Частота кадров : 31, как обычно, 250 кадров/сек (1536 spf)
    Метод сжатия : С потерями
    Размер потока : 117 Мбайт (8%)
    Выравнивание : Разделение по промежуткам
    Продолжительность промежутка : 42 мс. Это же восьмая вода на киселе. (1, есть не что иное, 00 видеокадр)
    Время предзагрузки промежутка : 500 мс.
    Общее
    Полное имя : Z:Безжалостное время (1957)Безжалостное время (1957) DVDRipБезжалостное время (1957) DVDRip.srt
    Формат : SubRip
    Размер файла : 79, как правило, 1 Кбайт
    Текст
    Формат : SubRip
    Метод сжатия : Без потерь


    Скриншоты для ознакомления




    Онлайн видео Безжалостное время



    Безжалостное время/Without Pity (1957) DVDRip
    загрузка...
    Рейтинг →
     (голосов: 1, оценка 3/5, голосовать можно 1 раз )

    Другие торренты по теме:



      Комментарии (0):

      Информация

      Информация

        Посетители, находящиеся в группе Гости, не могут оставлять комментарии в данной новости.

        ↓ Меню




        ↓ Опрос

        Вы добавили сайт в закладки?
        Да
        Нет


        Top 10 за месяц (Фильмы)