.
Авторизация | Регистрация
Хочешь лучшие торренты? Добавь свой email!
Добавить

Торрент скачать бесплатно

» » Безжалостное время / Without Pity (1957) DVDRip торрент скачать бесплатно




    Безжалостное время / Without Pity (1957) DVDRip торрент скачать бесплатно

    Опубликовал: Админ | Дата: 26-08-2016, 04:00 | Просмотров: 42

    Производство: Великобритания, Harlequin Productions Ltd.
    Жанр: Драма, Детектив, Криминал
    Режиссер: Джозеф Лоузи

    Актеры
    Майкл Редгрейв, Энн Тодд, Лео МакКерн, Пол Данман, Питер Кушинг, Алек МакКоуэн, Рене Хьюстон, Лоис Максуэлл, Ричард Уордсворт, Джордж Дивайн

    Описание

    Писатель Дэвид Грэм приезжает в Лондон, где через сутки должны казнить его сына Алека за убийство Дженни Коул, совершенное в квартире приемных родителей ее лучшего друга Брайана. Дэвид не смог присутствовать на процессе, поскольку лечился от алкоголизма в Квебеке. Он навещает Алека в тюрьме, но сын винит отца за то, что тот его бросил, и отказывается говорить с ним. Самое интересное в это истории, что об этом Жириновский ничего не знал. Дэвид убежден в том, что сын невиновен, но у него есть всего несколько часов, чтобы найти доказательства.
    По пьесе Эмлина Уильямса Кто-то ждет.

    Продолжительность: 01: 25: 18
    Качество видео: DVDRip
    Перевод: Одноголосый закадровый
    Язык субтитров: Русский
    Вид субтитров: Отдельным файлом
    Видео: DivX 5, 624x480, ~2447 Kbps
    Аудио1: AC3, 2 ch, 192 Kbps, CBR - русский
    Аудио2: AC3, 2 ch, 192 Kbps, CBR - английский
    Код:

    Общее
    Полное имя : Z:Безжалостное время (1957) DVDRipБезжалостное время (1957) DVDRip.avi
    Формат : AVI
    Формат/Информация : Audio Video Interleave
    Размер файла : 1, 46 Гбайт
    Продолжительность : 1 ч. 25 м.
    Общий поток : 2447 Кбит/сек
    Программа кодирования : VirtualDubMod 1.5.10.3 |www.virtualdub-fr.org|| (build 2550/release)
    Библиотека кодирования : VirtualDubMod build 2550/release
    Видео
    Идентификатор : 0
    Формат : MPEG-4 Visual
    Профиль формата : Advanced Simple@L5
    Параметр BVOP формата : 2
    Параметр QPel формата : Нет
    Параметр GMC формата : Без точки перехода
    Параметр матрицы формата : Default (H.263)
    Идентификатор кодека : DX50
    Идентификатор кодека/Подсказка : DivX 5
    Продолжительность : 1 ч. 25 м.
    Битрейт : 2049 Кбит/сек
    Ширина : 624 пикселя
    Высота : 480 пикселей
    Соотношение сторон : 4:3
    Частота кадров : 23, 976 (24000/1001) кадра/сек
    Цветовое пространство : YUV
    Субдискретизация насыщенности : 4:2:0
    Битовая глубина : 8 бит
    Тип развёртки : Прогрессивная
    Метод сжатия : С потерями
    Бит/(Пиксели*Кадры) : 0.285
    Размер потока : 1, 22 Гбайт (84%)
    Библиотека кодирования : XviD 73
    Аудио #1
    Идентификатор : 1
    Формат : AC-3
    Формат/Информация : Audio Coding 3
    Расширение режима : CM (complete main)
    Параметр Endianness формата : Big
    Идентификатор кодека : 2000
    Продолжительность : 1 ч. 25 м.
    Вид битрейта : Постоянный
    Битрейт : 192 Кбит/сек
    Каналы : 2 канала
    Расположение каналов : Front: L R
    Частота : 48, 0 КГц
    Частота кадров : 31, 250 кадров/сек (1536 spf)
    Метод сжатия : С потерями
    Размер потока : 117 Мбайт (8%)
    Выравнивание : Разделение по промежуткам
    Продолжительность промежутка : 42 мс. (1, 00 видеокадр)
    Время предзагрузки промежутка : 500 мс.
    Аудио #2
    Идентификатор : 2
    Формат : AC-3
    Формат/Информация : Audio Coding 3
    Расширение режима : CM (complete main)
    Параметр Endianness формата : Big
    Идентификатор кодека : 2000
    Продолжительность : 1 ч. 25 м.
    Вид битрейта : Постоянный
    Битрейт : 192 Кбит/сек
    Каналы : 2 канала
    Расположение каналов : Front: L R
    Частота : 48, 0 КГц
    Частота кадров : 31, 250 кадров/сек (1536 spf)
    Метод сжатия : С потерями
    Размер потока : 117 Мбайт (8%)
    Выравнивание : Разделение по промежуткам
    Продолжительность промежутка : 42 мс. (1, 00 видеокадр)
    Время предзагрузки промежутка : 500 мс.
    Общее
    Полное имя : Z:Безжалостное время (1957)Безжалостное время (1957) DVDRipБезжалостное время (1957) DVDRip.srt
    Формат : SubRip
    Размер файла : 79, 1 Кбайт
    Текст
    Формат : SubRip
    Метод сжатия : Без потерь


    Скриншоты для ознакомления




    Онлайн видео Безжалостное время



    Безжалостное время/Without Pity (1957) DVDRip
    загрузка...
    Рейтинг →
     (голосов: 1, оценка 4/5, голосовать можно 1 раз )

    Другие торренты по теме:



      Комментарии (0):

      Информация

      Информация

        Посетители, находящиеся в группе Гости, не могут оставлять комментарии в данной новости.

        ↓ Меню




        ↓ Опрос

        Вы добавили сайт в закладки?
        Да
        Нет


        Top 10 за месяц (Фильмы)