.
Авторизация | Регистрация
Хочешь лучшие торренты? Добавь свой email!
Добавить

Торрент скачать бесплатно

» » Флибэг / Дрянь / Fleabag (2016) WEB-DL [H.264 / 720p-LQ] (сезон 1, серия 1 из 6) NewStudio (обновляемая) торрент скачать бесплатно




    Флибэг / Дрянь / Fleabag (2016) WEB-DL [H.264 / 720p-LQ] (сезон 1, серия 1 из 6) NewStudio (обновляемая) торрент скачать бесплатно

    Опубликовал: Админ | Дата: 26-08-2016, 04:00 | Просмотров: 51

    Производство: Великобритания, Two Brothers Pictures
    Жанр: комедия
    Режиссер: Гарри Брэдбир, Тим Киркби

    Актеры
    Фиби Уоллер-Бридж, Бен Элдридж, Сиан Клиффорд, Джэми Деметриу, Билл Патерсон, Дженни Рейнсфорд, Хью Скиннер, Оливия Колман, Сара Дэйкин, Хью Дэннис и др.

    Описание

    В основу сериала лёг одноименный моно-спектакль Фиби Уоллер Бридж 2013 года, получивший самые положительные отзывы критиков. Сюжет комедии заверчен вокруг молодой, упрямой и стабильно попадающей в неприятности феминистки Фиби, которая изо всех сил стремится изменить что-то в этом мире, но категорически неспособна принимать помощь и советы окружающих.

    Дата мировой премьеры: 21 июля 2016
    Релиз от: NewStudio
    Продолжительность: ~ 00: 26: 00 серия
    Качество видео: WEB-DL
    Перевод: Профессиональный многоголосый закадровый -NewStudio
    Автор перевода: Юлия Мейер
    Формат: MKV
    Видео: AVC/H.264, 960x536@1280x536 (2, 40: 1), ~3838 Kbps, ~0.298 bit/pixel
    Аудио Rus: AC3, 192 kbps, 2 ch, 48 kHz
    Аудио Eng: AC3, 192 kbps, 2 ch, 48 kHz
    Код:
    Общее
    Fleabag - Дрянь. Самое интересное в это истории, что об этом Шварценеггер ничего не знал. Сезон 1. NewStudio. Взрывоопасный вопрос, сказал кто то из толпы, к чему не понятно. 720pFleabag.s01e01.WEB-DL.720p.NewStudio.mkv
    Формат : Matroska
    Версия формата : Version 4/Version 2
    Размер файла : 804 Мбайт
    Продолжительность : 26 м.
    Общий поток : 4308 Кбит/сек
    Название фильма : Fleabag s01e01 @ NNM-Club
    Дата кодирования : UTC 2016-08-25 13:21:42
    Программа кодирования : mkvmerge v6.9.1 (\'Blue Panther\') 64bit built on Apr 18 2014 18:23:38
    Библиотека кодирования : libebml v1.3.0 + libmatroska v1.4.1
    Видео
    Идентификатор : 1
    Формат : AVC
    Формат/Информация : Advanced Video Codec
    Профиль формата :Main@L3.1
    Параметр CABAC формата : Нет
    Параметр ReFrames формата : 2 кадра
    Идентификатор кодека : V_MPEG4/ISO/AVC
    Продолжительность : 26 м.
    Битрейт : 3838 Кбит/сек
    Ширина : 960 пикселей
    Высота : 536 пикселей
    Соотношение сторон : 2, 40:1
    Режим частоты кадров : Постоянный
    Частота кадров : 25, 000 кадров/сек
    Цветовое пространство : YUV
    Субдискретизация насыщенности : 4:2:0
    Битовая глубина : 8 бит
    Тип развёртки : Прогрессивная
    Бит/(Пиксели*Кадры) : 0.298
    Размер потока : 716 Мбайт (89%)
    Язык : English
    Default : Да
    Forced : Нет
    Основные цвета : BT.709
    Характеристики трансфера : BT.709
    Коэффициенты матрицы : BT.709
    colour_range : Limited
    Аудио #1
    Идентификатор : 2
    Формат : AC-3
    Формат/Информация : Audio Coding 3
    Расширение режима : CM (complete main)
    Параметр Endianness формата : Big
    Идентификатор кодека : A_AC3
    Продолжительность : 26 м.
    Вид битрейта : Постоянный
    Битрейт : 192 Кбит/сек
    Каналы : 2 канала
    Расположение каналов : Front: L R
    Частота : 48, 0 КГц
    Битовая глубина : 16 бит
    Метод сжатия : С потерями
    Размер потока : 35, 8 Мбайт (4%)
    Язык : Russian
    Default : Да
    Forced : Нет
    Аудио #2
    Идентификатор : 3
    Формат : AC-3
    Формат/Информация : Audio Coding 3
    Расширение режима : CM (complete main)
    Параметр Endianness формата : Big
    Идентификатор кодека : A_AC3
    Продолжительность : 26 м.
    Вид битрейта : Постоянный
    Битрейт : 192 Кбит/сек
    Каналы : 2 канала
    Расположение каналов : Front: L R
    Частота : 48, 0 КГц
    Битовая глубина : 16 бит
    Метод сжатия : С потерями
    Размер потока : 35, 8 Мбайт (4%)
    Язык : English
    Default : Нет
    Forced : Нет


    Скриншоты для ознакомления




    Онлайн видео Флибэг



    Флибэг/Дрянь/Fleabag (2016) WEB-DL [H.264/720p-LQ] (сезон 1, серия 1 из 6) NewStudio (обновляемая)
    загрузка...
    Рейтинг →
     (голосов: 1, оценка 5/5, голосовать можно 1 раз )

    Другие торренты по теме:

  • Флибэг / Дрянь / Fleabag (2016) WEB-DLRip (сезон 1, серии 1 из 6) NewStudio (обновляемая)
  • Флибэг / Дрянь / Fleabag (2016) WEB-DL [H.264 / 1080p-LQ] (сезон 1, серия 1 из 6) NewStudio (обновляемая)


    • Комментарии (0):

      Информация

      Информация

        Посетители, находящиеся в группе Гости, не могут оставлять комментарии в данной новости.

        ↓ Меню




        ↓ Опрос

        Вы добавили сайт в закладки?
        Да
        Нет


        Top 10 за месяц (Фильмы)