.
Авторизация | Регистрация
Хочешь лучшие торренты? Добавь свой email!
Добавить

Торрент скачать бесплатно

» » Меч (2009) WEBRip (сезон 1, серии 1-25 из 25) торрент скачать бесплатно




    Меч (2009) WEBRip (сезон 1, серии 1-25 из 25) торрент скачать бесплатно

    Опубликовал: Админ | Дата: 26-08-2016, 04:00 | Просмотров: 64

    Производство: Россия/DixiMedia
    Жанр: Боевик, Криминал
    Режиссер: Рустам Уразаев, Виктор Конисевич

    Актеры
    Эдуард Флёров, Роман Курцын, Тимур Ефременков, Дарья Повереннова, Виктория Фишер, Александр Баринов, Нина Гогаева, Владислав Павлов, Александр Фисенко, Шухрат Иргашев и др...

    Описание

    Москва, 2009 год. Максу Калинину 35 лет, он бывший офицер разведки ВДВ, оперативник УБОП. После 10 лет работы его увольняют со службы по фиктивному обвинению, без права в дальнейшем работать в органах правопорядка, а опасный преступник выходит на свободуе без предъявления обвинения. Божий одуванчик, сказал кто то из толпы, к чему не понятно. Это Калинин не может простить. Проследив за отпущенным на свободу преступником, Калинин в тот же вечер вершит собственное правосудие, убивая его. С этого дня Калинин понимает, чем он будет заниматься, — он будет бороться с беззаконием своими методами. И ЗАКОН у него будет свой... И НАКАЗАНИЕ только одно — смерть... Калинин собирает команду из таких же как и он. Преступные деньги, которыми удается завладеть, бойцы оставляют себе и постепенно маленькая команда, превращается в опасную карательную организацию, которую бояться все и теперь они находятся между двух зол — криминального мира, который объявляет огромные деньги за их головы и своих бывших коллег, которые начинают охоту на оборотней...

    Возраст: 16+ (зрителям, достигшим 16 лет)
    Продолжительность: ~ 00: 48: 00 серия
    Качество видео: WEBRip
    Видео: Xvid, 720x400 (16: 9), ~1419 Kbps
    Аудио: AC3, 2 ch, 192 kbps, CBR
    Код:

    Общее
    Полное имя : D:Мои фильмыMech_S1_1-25iz25_2009_XviD_WEBRip1.Приговор.avi
    Формат : AVI
    Формат/Информация : Audio Video Interleave
    Размер файла : 555 Мбайт
    Продолжительность : 47 м.
    Общий поток : 1620 Кбит/сек
    Программа кодирования : VirtualDubMod 1.5.10.3 www.virtualdub-fr.org|| (build 2550/release)
    Библиотека кодирования : VirtualDub build 35491/release
    Видео
    Идентификатор : 0
    Формат : MPEG-4 Visual
    Профиль формата : Advanced Simple@L5
    Параметр BVOP формата : 2
    Параметр QPel формата : Нет
    Параметр GMC формата : Без точки перехода
    Параметр матрицы формата : Default (H.263)
    Идентификатор кодека : XVID
    Идентификатор кодека/Подсказка : XviD
    Продолжительность : 47 м.
    Битрейт : 1419 Кбит/сек
    Ширина : 720 пикселей
    Высота : 400 пикселей
    Соотношение сторон : 16:9
    Частота кадров : 25, 000 кадров/сек
    Цветовое пространство : YUV
    Субдискретизация насыщенности : 4:2:0
    Битовая глубина : 8 бит
    Тип развёртки : Прогрессивная
    Метод сжатия : С потерями
    Бит/(Пиксели*Кадры) : 0.197
    Размер потока : 486 Мбайт (88%)
    Библиотека кодирования : XviD 67
    Аудио
    Идентификатор : 1
    Формат : AC-3
    Формат/Информация : Audio Coding 3
    Расширение режима : CM (complete main)
    Параметр Endianness формата : Big
    Идентификатор кодека : 2000
    Продолжительность : 47 м.
    Вид битрейта : Постоянный
    Битрейт : 192 Кбит/сек
    Каналы : 2 канала
    Расположение каналов : Front: L R
    Частота : 48, 0 КГц
    Частота кадров : 31, 250 кадров/сек (1536 spf)
    Метод сжатия : С потерями
    Размер потока : 65, 8 Мбайт (12%)
    Выравнивание : Соединение по промежуткам
    Продолжительность промежутка : 40 мс. (1, 00 видеокадр)
    Время предзагрузки промежутка : 512 мс.


    Скриншоты для ознакомления




    Онлайн видео Меч (2009) WEBRip (сезон любимого сериала 1, серии 1



    Меч (2009) WEBRip (сезон 1, серии 1-25 из 25)
    загрузка...
    Рейтинг →
     (голосов: 1, оценка 3/5, голосовать можно 1 раз )

    Другие торренты по теме:

  • Конь БоДжек / BoJack Horseman (2014) WEBRip (Сезон 1, серии 1-12 из 12) (NewStudio) [18+]
  • Куку / Cuckoo (2014) WEBRip (Сезон 2, серии 1-2 из 6) (Amedia) (обновляемая)
  • Куку / Cuckoo (2014) WEBRip (Сезон 2, серии 1-4 из 6) (Ozz) (обновляемая)
  • Halo: Сумерки / Halo: Nightfall (2014) WEBRip (сезон 1, серии 1 из 5) AlexFilm (обновляемая) скачать через торрент бесплатно
  • Halo: Сумерки / Halo: Nightfall (2014) WEBRip (сезон 1, серии 1 из 5) NewStudio (обновляемая)
  • Моцарт в джунглях / Mozart in the Jungle (2014) WEBRip (Сезон 1, серия 1 из 10) (Ozz) (обновляемая)
  • Девчонки / Some Girls (2013) WEBRip [сезон 2, серии 1-6 из 6] (ViruseProject)
  • Марко Поло / Marco Polo (2014) WEBRip (сезон 1, серии 1-2 из 10) NewStudio (обновляемая) скачать через торрент бесплатно


    • Комментарии (0):

      Информация

      Информация

        Посетители, находящиеся в группе Гости, не могут оставлять комментарии в данной новости.

        ↓ Меню




        ↓ Опрос

        Вы добавили сайт в закладки?
        Да
        Нет


        Top 10 за месяц (Фильмы)