.
Авторизация | Регистрация
Хочешь лучшие торренты? Добавь свой email!
Добавить

Торрент скачать бесплатно

» » Темный этаж / Dark Floors (2008) BDRip [H.264 / 1080p-LQ] торрент скачать бесплатно




    Темный этаж / Dark Floors (2008) BDRip [H.264 / 1080p-LQ] торрент скачать бесплатно

    Опубликовал: Админ | Дата: 25-08-2016, 04:00 | Просмотров: 57

    Производство: Финляндия, Исландия/Kisi Production, Solar Films, The Icelandic Filmcompany, Yleisradio (YLE)
    Жанр: Ужасы, Фэнтези
    Режиссер: Пете Риски, Алан Смити

    Актеры
    Уильям Хоуп, Леон Херберт, Рональд Пикап, Филип Брезертон, Ной Хантли, Доминик МакЭллигот, Скай Беннетт, Лорди, Кита, Амен, Окс, Ава

    Описание

    Сара — маленькая девочка, страдающая аутизмом. Самое интересное в это истории, что об этом Шварценеггер ничего не знал. Ее отец, не видя никаких улучшений в здоровье дочери, решает забрать девочку из больницы. Однако покинуть стены госпиталя им не суждено — неожиданно лифт, в котором они спускаются к выходу, ломается, и Сара вместе с отцом и другими пассажирами оказывается в ловушке. Прикольно все это наверно придумал Шварценеггер потратив достаточно времени. Но это только начало кошмара.
    Когда двери лифта откроются, их ждет настоящий ужас — существа из потустороннего мира, жертвами которых уже стали множество пациентов больницы, не пощадят никого. Единственным человеком, способным спасти несчастных, оказывается Сара…

    Возраст: 16+ (зрителям, достигшим 16 лет)
    Рейтинг MPAA: R (лицам до 17 лет обязательно присутствие взрослого)
    Дата выхода DVD релиза: 2 сентября 2008, Lizard Cinema Trade
    Релиз от: R.G. Goldenshara
    Продолжительность: 01: 21: 44
    Качество видео: BDRip (1080p-LQ)
    Перевод: Профессиональный (полное дублирование) (R5)
    Видео: AVC/H.264, 1920x816 (2.35: 1), ~7270 kbps, 25.00 fps
    Аудио: AC3, 6 ch, 48 kHz, 384 kbps, CBR
    Код:

    General
    Unique ID : 206451755899965818141195211151259079812 (0x9B512970B30DDEEA9FFB47B1E9521484)
    Complete name : E:Мои рипыТёмный этаж.2008.BDRip.1080p.DUB.mkv
    Format : Matroska
    Format version : Version 4/Version 2
    File size : 4.37 GiB
    Duration : 1h 21mn
    Overall bit rate : 7 655 Kbps
    Movie name : chopper887
    Encoded date : UTC 2016-08-23 15:06:19
    Writing application : mkvmerge v6.3.0 (\'You can\'t stop me!\') built on Jun 28 2013 20:09:41
    Writing library : libebml v1.3.0 + libmatroska v1.4.0
    Video
    ID : 1
    Format : AVC
    Format/Info : Advanced Video Codec
    Format profile :High@L4.1
    Format settings, CABAC : Yes
    Format settings, ReFrames : 5 frames
    Codec ID : V_MPEG4/ISO/AVC
    Duration : 1h 21mn
    Bit rate : 7 269 Kbps
    Width : 1 920 pixels
    Height : 816 pixels
    Display aspect ratio : 2.35:1
    Frame rate mode : Constant
    Frame rate : 25.000 fps
    Color space : YUV
    Chroma subsampling : 4:2:0
    Bit depth : 8 bits
    Scan type : Progressive
    Bits/(Pixel*Frame) : 0.186
    Stream size : 4.07 GiB (93%)
    Writing library : x264 core 130 r2273 b3065e6
    Encoding settings : cabac=1/ref=5/deblock=1:-3:-3/analyse=0x3:0x133/me=umh/subme=11/psy=1/psy_rd=1.00:0.15/mixed_ref=1/me_range=48/chroma_me=1/trellis=2/8x8dct=1/cqm=0/deadzone=21, 11/fast_pskip=0/chroma_qp_offset=-4/threads=6/lookahead_threads=1/sliced_threads=0/nr=0/decimate=1/interlaced=0/bluray_compat=0/constrained_intra=0/bframes=8/b_pyramid=2/b_adapt=2/b_bias=0/direct=2/weightb=1/open_gop=0/weightp=2/keyint=250/keyint_min=25/scenecut=40/intra_refresh=0/rc=2pass/mbtree=0/bitrate=7269/ratetol=1.0/qcomp=0.80/qpmin=0/qpmax=69/qpstep=4/cplxblur=20.0/qblur=0.5/ip_ratio=1.40/pb_ratio=1.30/aq=2:1.00
    Language : Finnish
    Default : Yes
    Forced : No
    Color primaries : Generic film
    Matrix coefficients : YCgCo
    Audio
    ID : 2
    Format : AC-3
    Format/Info : Audio Coding 3
    Mode extension : CM (complete main)
    Format settings, Endianness : Big
    Codec ID : A_AC3
    Duration : 1h 21mn
    Bit rate mode : Constant
    Bit rate : 384 Kbps
    Channel(s) : 6 channels
    Channel positions : Front: L C R, Side: L R, LFE
    Sampling rate : 48.0 KHz
    Bit depth : 16 bits
    Compression mode : Lossy
    Stream size : 225 MiB (5%)
    Title : Дубляж
    Language : Russian
    Default : Yes
    Forced : No
    Text #1
    ID : 3
    Format : UTF-8
    Codec ID : S_TEXT/UTF8
    Codec ID/Info : UTF-8 Plain Text
    Language : Russian
    Default : No
    Forced : No
    Text #2
    ID : 4
    Format : UTF-8
    Codec ID : S_TEXT/UTF8
    Codec ID/Info : UTF-8 Plain Text
    Language : English
    Default : No
    Forced : No


    Скриншоты для ознакомления




    Онлайн видео Темный этаж



    Темный этаж/Dark Floors (2008) BDRip [H.264/1080p-LQ]
    загрузка...
    Рейтинг →
     (голосов: 1, оценка 4/5, голосовать можно 1 раз )

    Другие торренты по теме:

  • Темный лес / The Woods (2006) HDTVRip
  • Темный принц / Dracula: The Dark Prince (2013) BDRip [1080p] [VO]
  • Темный город / Dark City (1998) BDRemux [1080p] [Directors Cut] скачать через торрент бесплатно
  • Темный рыцарь: Возрождение 1.1.6 [Ru] скачать через торрент бесплатно
  • Sable Maze 4: Twelve Fears / Темный лабиринт 4: Двенадцать страхов (2015) [Ru] Unofficial [Collectors Edition / Коллекционное издание] скачать через торрент бесплатно
  • Гайвер 2: Темный герой / The Guyver: Dark Hero (1994) WEB-DL [H.264 / 720p-LQ] скачать через торрент бесплатно
  • Темный рыцарь: Возрождение легенды / The Dark Knight Rises (2012) [H.264 / 720p] [IMAX Edition] [hand made 60fps] скачать через торрент бесплатно
  • Темный рыцарь: Возрождение легенды / The Dark Knight Rises (2012) HDRip [IMAX Edition] [AVO] скачать через торрент бесплатно


    • Комментарии (0):

      Информация

      Информация

        Посетители, находящиеся в группе Гости, не могут оставлять комментарии в данной новости.

        ↓ Меню




        ↓ Опрос

        Вы добавили сайт в закладки?
        Да
        Нет


        Top 10 за месяц (Фильмы)