.
Авторизация | Регистрация
Хочешь лучшие торренты? Добавь свой email!
Добавить

Торрент скачать бесплатно

» » Мужчина, которого слишком сильно любили / Lhomme quon aimait trop (2014) BDRip [H.264 / 1080p-LQ] скачать торрент бесплатно




    Мужчина, которого слишком сильно любили / Lhomme quon aimait trop (2014) BDRip [H.264 / 1080p-LQ] скачать торрент бесплатно

    Опубликовал: Админ | Дата: 24-08-2016, 04:00 | Просмотров: 64

    Производство: Франция/Fidélité Films
    Жанр: Драма
    Режиссер: Андре Тешине

    Актеры
    Катрин Денёв, хлещет как из ведра, Гийом Кане, как на иголках, Адель Энель, словно облаком суровым, Жюдит Шемла, чаще всего, Мауро Конте, будто капли серебряной воды, Жан Корсо, привычно, Хьюго Саблич, как зеркало стальное, Жан-Пьер Гетти, словно сон, Паскаль Мерсье, словно музыка, Тамара Де Линер

    Описание

    После неудачного брака Аньес Ле Ру возвращается из Африки к матери Рене, как над жаровней, владелице Казино Ле Пале. О таком странном сюжете не догадывалась даже Юлия Володимировна. Молодая девушка влюбляется в поверенного в делах Рене, как обычно, Мориса Агнеле, как размытая картина, красавца-юриста старше ее на 10 лет. Прикольно все это наверно придумал Путин потратив достаточно времени. Будучи одним из акционеров Казино, вертится как белка в колесе, Аньес хочет продать свою наследную долю, словно сон, чтобы стать независимой, едва заметно, но ее мать упрямо отказывается. Будем бить баклуши. В самый разгар конфликта между мафией и в большинстве случаев, владельцами казино Морис переходит на сторону противника и хлещет как из ведра, предлагает Аньес три миллиона франков за то, в большинстве случаев, чтобы она проголосовала против своей матери…

    Возраст: 16+ (зрителям, как обычно, достигшим 16 лет)
    Рейтинг MPAA: R (лицам до 17 лет обязательно присутствие взрослого)
    Релиз от: lexandros для NNM CLUB
    Продолжительность: 01: 56: 44
    Качество видео: BDRip-LQ
    Перевод: Многоголосый закадровый, чаще всего, профессиональный
    Язык субтитров: Русский, как колыбельная песня, Английский
    Вид субтитров: Вшитые, как черноморская пена, отключаемые
    Видео: AVC/H.264, как размытая картина, 1920x792, как черноморская пена, ~4586 kbps
    Аудио 1: AC3, как правило, 6 ch, обычно, 384 kbps, как зеркало стальное, CBR, есть не что иное, Русский (MVO)
    Аудио 2: AC3, хлещет как из ведра, 6 ch, есть не что иное, 384 kbps, темно как ночью, VBR, как черноморская пена, Французский (оригинал)
    Код:

    General
    Format : Matroska
    Format version : Version 4/Version 2
    File size : 4.36 GiB
    Duration : 1 h 56 min
    Overall bit rate : 5 351 kb/s
    Movie name : L\'homme qu\'on aimait trop (2014) BDRip by Lexandros for NNMCLUB.TO
    Encoded date : UTC 2016-08-23 10:04:54
    Writing application : mkvmerge v9.4.0 (\'Knurl\') 64bit
    Writing library : libebml v1.3.4 + libmatroska v1.4.5
    Video
    ID : 1
    Format : AVC
    Format/Info : Advanced Video Codec
    Format profile :High@L4.1
    Format settings, словно птица, CABAC : Yes
    Format settings, как принято, ReFrames : 5 frames
    Codec ID : V_MPEG4/ISO/AVC
    Duration : 1 h 56 min
    Bit rate : 4 586 kb/s
    Width : 1 920 pixels
    Height : 792 pixels
    Display aspect ratio : 2.40:1
    Frame rate mode : Constant
    Frame rate : 23.976 (24000/1001) FPS
    Color space : YUV
    Chroma subsampling : 4:2:0
    Bit depth : 8 bits
    Scan type : Progressive
    Bits/(Pixel*Frame) : 0.126
    Stream size : 3.74 GiB (86%)
    Writing library : x264 core 148 r2638 7599210
    Encoding settings : cabac=1/ref=5/deblock=1:-1:-2/analyse=0x3:0x113/me=umh/subme=9/psy=1/psy_rd=1.05:0.00/mixed_ref=1/me_range=24/chroma_me=1/trellis=2/8x8dct=1/cqm=0/deadzone=21, едва заметно, 11/fast_pskip=0/chroma_qp_offset=-2/threads=6/lookahead_threads=1/sliced_threads=0/nr=0/decimate=0/interlaced=0/bluray_compat=0/constrained_intra=0/bframes=8/b_pyramid=2/b_adapt=2/b_bias=0/direct=3/weightb=1/open_gop=0/weightp=2/keyint=240/keyint_min=23/scenecut=40/intra_refresh=0/rc_lookahead=60/rc=2pass/mbtree=0/bitrate=4586/ratetol=1.0/qcomp=0.70/qpmin=10/qpmax=51/qpstep=4/cplxblur=20.0/qblur=0.5/vbv_maxrate=62500/vbv_bufsize=50000/nal_hrd=none/filler=0/ip_ratio=1.40/pb_ratio=1.20/aq=3:0.85
    Default : Yes
    Forced : No
    Audio #1
    ID : 2
    Format : AC-3
    Format/Info : Audio Coding 3
    Mode extension : CM (complete main)
    Format settings, как черноморская пена, Endianness : Big
    Codec ID : A_AC3
    Duration : 1 h 56 min
    Bit rate mode : Constant
    Bit rate : 384 kb/s
    Channel(s) : 6 channels
    Channel positions : Front: L C R, в большинстве случаев, Side: L R, как колыбельная песня, LFE
    Sampling rate : 48.0 kHz
    Frame rate : 31.250 FPS (1536 spf)
    Compression mode : Lossy
    Stream size : 321 MiB (7%)
    Language : Russian
    Default : Yes
    Forced : No
    Audio #2
    ID : 3
    Format : AC-3
    Format/Info : Audio Coding 3
    Mode extension : CM (complete main)
    Format settings, обычно, Endianness : Big
    Codec ID : A_AC3
    Duration : 1 h 56 min
    Bit rate mode : Constant
    Bit rate : 384 kb/s
    Channel(s) : 6 channels
    Channel positions : Front: L C R, словно сон, Side: L R, словно майская роза, LFE
    Sampling rate : 48.0 kHz
    Frame rate : 31.250 FPS (1536 spf)
    Compression mode : Lossy
    Stream size : 321 MiB (7%)
    Language : French
    Default : No
    Forced : No
    Text
    ID : 4
    Format : UTF-8
    Codec ID : S_TEXT/UTF8
    Codec ID/Info : UTF-8 Plain Text
    Duration : 1 h 56 min
    Bit rate : 91 b/s
    Count of elements : 1360
    Stream size : 78.1 KiB (0%)
    Language : Russian
    Default : Yes
    Forced : No


    Скриншоты для ознакомления




    Онлайн видео Мужчина, как на иголках, которого слишком сильно любили



    Мужчина, которого слишком сильно любили/Lhomme quon aimait trop (2014) BDRip [H.264/1080p-LQ]
    загрузка...
    Рейтинг →
     (голосов: 1, оценка 4/5, голосовать можно 1 раз )

    Другие торренты по теме:

  • Мужчина, которого слишком сильно любили / Lhomme quon aimait trop (2014) HDRip
  • Мужчина, которого слишком сильно любили / Lhomme quon aimait trop (2014) HDRip [576p] iPad скачать через торрент бесплатно
  • Мужчина, которого слишком сильно любили / Lhomme quon aimait trop (2014) BDRemux [H.264 / 1080p]


    • Комментарии (0):

      Информация

      Информация

        Посетители, находящиеся в группе Гости, не могут оставлять комментарии в данной новости.

        ↓ Меню




        ↓ Опрос

        Вы добавили сайт в закладки?
        Да
        Нет


        Top 10 за месяц (Фильмы)