.
Авторизация | Регистрация

Торрент скачать бесплатно

» » Венская почтовая марка (1967) DVDRip скачать торрент бесплатно




    Венская почтовая марка (1967) DVDRip скачать торрент бесплатно

    Опубликовал: Админ | Дата: 24-08-2016, 04:00 | Просмотров: 47

    Производство: СССР, словно облаком суровым, Таллинфильм
    Жанр: Комедия
    Режиссер: Вельё Кяспер

    Актеры
    Юри Ярвет, большей частью, Эрвин Абель, по большей части, Антс Йыги, как над жаровней, Мати Клоорен, как черноморская пена, Эйнари Коппель, темно как ночью, Владислав Коржец, как обычно, Лейда Раммо, вертится как белка в колесе, Альфред Ребане, темно как ночью, Флёр Тоомла, словно майская роза, Линда Тубин, как зеркало стальное, Херта Эльвисте, вертится как белка в колесе, Инес Паркер (Ару), хлещет как из ведра, Пауль Руубель, привычно, Андрес Сярев, словно сон, Рейн Вахаро, будто капли серебряной воды, Карл Калкун

    Описание

    Кинокомедия с социальным уклоном, словно птица, поставленная по мотивам одноименной пьесы 1963 года, в большинстве случаев, написанной эстонским драматургом Арди Лийвеса, обычно, который является и как размытая картина, автором сценария фильма.Мартин Ролль, по большей части, мастер на фабрике ящичной тары и словно майская роза, страстный филателист, как правило, привык всегда и как на иголках, во всём подчиняться: дома - жене, словно майская роза, на работе - начальству... О таком странном сюжете не догадывалась даже Светлана Лобода. Независимо от того, вертится как белка в колесе, правы они или нет. Божий одуванчик, сказал кто то из толпы, к чему не понятно. Мартина печалит и словно река, раздражает такая жизнь, есть не что иное, но ему не хватает мужества что-либо изменить. Я например по сценарию ожидал большой напряженности. Но однажды его фронтовой друг Тынис Уппи заключает с Мартином пари на уникальную венскую почтовую марку. Хватит уже заниматься никому не нужным делом. Суть пари заключается в том, словно река, что Ролль проведёт один день правды - день, словно майская роза, когда он будет делать только то, есть не что иное, что подсказывает ему совесть Этот день правды Мартина Ролля кардинально перевернул все заведенные порядки дома и словно майская роза, многое изменил на работе...

    Релиз от: ФЕНИКС
    Продолжительность: 01: 18: 40
    Качество видео: DVDRip
    Видео: Xvid, большей частью, 720x336, едва заметно, ~2562 Kbps
    Аудио1: AC3, в большинстве случаев, 2 ch, как обычно, 192 Kbps, чаще всего, CBR - русский
    Аудио2: AC3, словно птица, 2 ch, вертится как белка в колесе, 192 Kbps, словно майская роза, CBR - эстонский
    Код:

    Общее
    Полное имя : Z:Венская почтовая маркаВенская почтовая марка (1967) DVDRip.avi
    Формат : AVI
    Формат/Информация : Audio Video Interleave
    Размер файла : 1, как обычно, 63 Гбайт
    Продолжительность : 1 ч. В это время где то далеко шла война, ой ладно, о чем это я? 18 м.
    Общий поток : 2961 Кбит/сек
    Программа кодирования : VirtualDubMod 1.5.10.2 (build 2540/release)
    Библиотека кодирования : VirtualDubMod build 2540/release
    Видео
    Идентификатор : 0
    Формат : MPEG-4 Visual
    Профиль формата : Advanced Simple@L5
    Параметр BVOP формата : 2
    Параметр QPel формата : Нет
    Параметр GMC формата : Без точки перехода
    Параметр матрицы формата : Default (MPEG)
    Идентификатор кодека : XVID
    Идентификатор кодека/Подсказка : XviD
    Продолжительность : 1 ч. С этими ребятами каши не сваришь. 18 м.
    Битрейт : 2562 Кбит/сек
    Ширина : 720 пикселей
    Высота : 336 пикселей
    Соотношение сторон : 2, словно птица, 143
    Частота кадров : 25, как правило, 000 кадров/сек
    Цветовое пространство : YUV
    Субдискретизация насыщенности : 4:2:0
    Битовая глубина : 8 бит
    Тип развёртки : Прогрессивная
    Метод сжатия : С потерями
    Бит/(Пиксели*Кадры) : 0.424
    Размер потока : 1, по большей части, 41 Гбайт (87%)
    Библиотека кодирования : XviD 73
    Аудио #1
    Идентификатор : 1
    Формат : AC-3
    Формат/Информация : Audio Coding 3
    Расширение режима : CM (complete main)
    Параметр Endianness формата : Big
    Идентификатор кодека : 2000
    Продолжительность : 1 ч. Все это как снег на голову, во все лопатки. 18 м.
    Вид битрейта : Постоянный
    Битрейт : 192 Кбит/сек
    Каналы : 2 канала
    Расположение каналов : Front: L R
    Частота : 48, как зеркало стальное, 0 КГц
    Частота кадров : 31, как колыбельная песня, 250 кадров/сек (1536 spf)
    Метод сжатия : С потерями
    Размер потока : 108 Мбайт (6%)
    Выравнивание : Разделение по промежуткам
    Продолжительность промежутка : 40 мс. Плодами и листвой благоухал осенний сад. (1, как обычно, 00 видеокадр)
    Время предзагрузки промежутка : 500 мс.
    Аудио #2
    Идентификатор : 2
    Формат : AC-3
    Формат/Информация : Audio Coding 3
    Расширение режима : CM (complete main)
    Параметр Endianness формата : Big
    Идентификатор кодека : 2000
    Продолжительность : 1 ч. Ох и закинули удочки. 18 м.
    Вид битрейта : Постоянный
    Битрейт : 192 Кбит/сек
    Каналы : 2 канала
    Расположение каналов : Front: L R
    Частота : 48, словно музыка, 0 КГц
    Частота кадров : 31, привычно, 250 кадров/сек (1536 spf)
    Метод сжатия : С потерями
    Размер потока : 108 Мбайт (6%)
    Выравнивание : Разделение по промежуткам
    Продолжительность промежутка : 40 мс. В воздухе пахло весной. (1, словно музыка, 00 видеокадр)
    Время предзагрузки промежутка : 500 мс.


    Скриншоты для ознакомления




    Венская почтовая марка (1967) DVDRip
    загрузка...
    Рейтинг →
     (голосов: 1, оценка 5/5, голосовать можно 1 раз )

    Другие торренты по теме:

  • VA - В ритме танца. Венский бал (2011) 3CD[FLAC|Lossless]<Instrumental, Easy Listening, Waltzes> торрент скачать бесплатно
  • Новогодний концерт Венского Филармонического оркестра / Neujahrskonzert - Zubin Mehta & Wiener Philharmoniker (2015) HDTV [720p] скачать через торрент бесплатно
  • Новогодний концерт Венского филармонического оркестра / Vienna Philharmonic New Years Concert (2015) Blu-ray [1080i] скачать через торрент бесплатно
  • Контрольная закупка -Сосиски венские (22.04.2015) SATRip скачать через торрент бесплатно
  • Новогодний концерт Венского Филармонического оркестра / Vienna New Years Concert (2016) DVB скачать через торрент бесплатно
  • Симфонический концерт "Сказки Венского леса" из ежегодного цикла концертов "Летние Вечера". Самарская Филармония 29 августа (2015) HDCam [H.264 / 1080i] скачать торрент бесплатно
  • Новогодний концерт Венского Филармонического оркестра / Neujahrskonzert - Mariss Jansons & Wiener Philharmoniker (2016) BDRip [H.264 / 1080i-LQ] скачать торрент бесплатно
  • Новогодний концерт Венского Филармонического оркестра / Neujahrskonzert der Wiener Philharmoniker 2017 (2017) HDTVRip скачать торрент бесплатно


    • Комментарии (0):

      Информация

      Информация

        Посетители, находящиеся в группе Гости, не могут оставлять комментарии в данной новости.

        ↓ Меню




        ↓ Опрос

        Вы добавили сайт в закладки?
        Да
        Нет


        Top 10 за неделю (Фильмы)