.
Авторизация | Регистрация
Хочешь лучшие торренты? Добавь свой email!
Добавить

Торрент скачать бесплатно

» » Далеко – далеко / Далёкая страна / Far and Away (1992) BDRip [H.264 / 1080p-LQ] торрент скачать бесплатно




    Далеко – далеко / Далёкая страна / Far and Away (1992) BDRip [H.264 / 1080p-LQ] торрент скачать бесплатно

    Опубликовал: Админ | Дата: 23-08-2016, 04:00 | Просмотров: 43

    Производство: США/Imagine Films Entertainment, Universal Pictures
    Жанр: Драма, Мелодрама, Приключения, Вестерн
    Режиссер: Рон Ховард

    Актеры
    Том Круз, Николь Кидман, Томас Гибсон, Роберт Проски, Барбара Бэбкок, Колм Мини, Мишель Джонсон, Джаред Харрис, Сирил Кьюсак, Эйлин Поллок, Дуглас Джиллисон, Уэйн Грейс

    Описание

    Прекрасно поставленная, выдержанная и как размытая картина изумительно сыгранная картина об эмигрантах, направляющихся в Новый Свет в XIX столетии. Еще одна история из времен Дикого Запада - и редкая возможность увидеть вместе на экране семейный звездный дуэт - Тома Круза и Николь Кидман. Рыжеволосая кудрявая красавица и ее скромный, но не имеющий ни гроша за душой возлюбленный, ирландец, отправляются на заокеанский далекий Запад в поисках счастья. Им приходится преодолеть массу препятствий, но в конце концов удача улыбается герою Тома Круза и он окончательно покоряет сердце своей возлюбленной, влившись в славные ряды пионеров американского Запада.

    Возраст: 12+ (зрителям, достигшим 12 лет)
    Рейтинг MPAA: PG-13 (детям до 13 лет просмотр нежелателен)
    Дата выхода DVD релиза: 24 октября 2006, Юниверсал Пикчерс Рус
    Дата выхода Blu-ray релиза: 14 августа 2014, Двадцатый Век Фокс СНГ

    Релиз от: R.G. Goldenshara
    Продолжительность: 02: 19: 53
    Качество видео: BDRip (1080p-LQ)
    Перевод: Многоголосый закадровый, профессиональный (R5)
    Видео: AVC/H.264, 1920x816 (2.35: 1), ~5386 kbps, 23, 976 fps
    Аудио: AC3, 6 ch, 48 kHz, 448 kbps, CBR
    Код:

    General
    Unique ID : 188558595604422041073335300250803964415 (0x8DDB1086A6BC749EA09EBE221F6909FF)
    Complete name : D:Мои рипыДалеко-далеко.1992.BDRip.1080p.MVO.mkv
    Format : Matroska
    Format version : Version 4/Version 2
    File size : 5.70 GiB
    Duration : 2h 19mn
    Overall bit rate : 5 832 Kbps
    Encoded date : UTC 2016-02-02 15:49:58
    Writing application : mkvmerge v6.3.0 (\'You can\'t stop me!\') built on Jun 28 2013 20:09:41
    Writing library : libebml v1.3.0 + libmatroska v1.4.0
    Video
    ID : 1
    Format : AVC
    Format/Info : Advanced Video Codec
    Format profile :High@L4.1
    Format settings, CABAC : Yes
    Format settings, ReFrames : 5 frames
    Codec ID : V_MPEG4/ISO/AVC
    Duration : 2h 19mn
    Bit rate : 5 386 Kbps
    Width : 1 920 pixels
    Height : 816 pixels
    Display aspect ratio : 2.35:1
    Frame rate : 23.976 fps
    Color space : YUV
    Chroma subsampling : 4:2:0
    Bit depth : 8 bits
    Scan type : Progressive
    Bits/(Pixel*Frame) : 0.143
    Stream size : 5.15 GiB (90%)
    Writing library : x264 core 130 r2273 b3065e6
    Encoding settings : cabac=1/ref=5/deblock=1:-3:-3/analyse=0x3:0x133/me=umh/subme=11/psy=1/psy_rd=1.00:0.15/mixed_ref=1/me_range=48/chroma_me=1/trellis=2/8x8dct=1/cqm=0/deadzone=21, 11/fast_pskip=0/chroma_qp_offset=-4/threads=6/lookahead_threads=1/sliced_threads=0/nr=0/decimate=1/interlaced=0/bluray_compat=0/constrained_intra=0/bframes=8/b_pyramid=2/b_adapt=2/b_bias=0/direct=2/weightb=1/open_gop=0/weightp=2/keyint=250/keyint_min=23/scenecut=40/intra_refresh=0/rc=2pass/mbtree=0/bitrate=5386/ratetol=1.0/qcomp=0.80/qpmin=0/qpmax=69/qpstep=4/cplxblur=20.0/qblur=0.5/ip_ratio=1.40/pb_ratio=1.30/aq=2:1.00
    Language : English
    Default : Yes
    Forced : No
    Color primaries : Generic film
    Matrix coefficients : YCgCo
    Audio
    ID : 2
    Format : AC-3
    Format/Info : Audio Coding 3
    Mode extension : CM (complete main)
    Codec ID : A_AC3
    Duration : 2h 19mn
    Bit rate mode : Constant
    Bit rate : 448 Kbps
    Channel(s) : 6 channels
    Channel positions : Front: L C R, Side: L R, LFE
    Sampling rate : 48.0 KHz
    Bit depth : 16 bits
    Compression mode : Lossy
    Stream size : 448 MiB (8%)
    Title : MVO (R5)
    Language : Russian
    Default : Yes
    Forced : No
    Menu
    00:00:00.000 : en:Chapter 1
    00:13:08.412 : en:Chapter 2
    00:20:44.910 : en:Chapter 3
    00:36:37.320 : en:Chapter 4
    00:42:54.196 : en:Chapter 5
    00:50:01.623 : en:Chapter 6
    00:54:39.776 : en:Chapter 7
    01:05:33.512 : en:Chapter 8
    01:20:53.682 : en:Chapter 9
    01:29:49.675 : en:Chapter 10
    01:36:31.243 : en:Chapter 11
    01:45:59.144 : en:Chapter 12
    02:00:09.702 : en:Chapter 13
    02:08:17.356 : en:Chapter 14
    02:10:19.937 : en:Chapter 15
    02:13:51.314 : en:Chapter 16
    02:19:53.343 : en:Chapter 17


    Скриншоты для ознакомления




    Онлайн видео Далеко – далеко



    Далеко – далеко/Далёкая страна/Far and Away (1992) BDRip [H.264/1080p-LQ]
    загрузка...
    Рейтинг →
     (голосов: 1, оценка 5/5, голосовать можно 1 раз )

    Другие торренты по теме:

  • До осени далеко (1964) SATRip
  • John Addison - Мост слишком далеко / A Bridge Too Far (1977) / 2010, Kritzerland / [FLAC|Lossless]<Score>
  • Далеко от дома / Far from Home (2014) HDTV [H.264 / 1080i]
  • Кай Метов - ...Где-то Далеко Идут Дожди (1997) [FLAC|Lossless|tracks + .cue] <Pop>
  • Далеко от дома: Приключения желтого пса / Far from Home: The Adventures of Yellow Dog (1995) HDTVRip
  • Далеко от дома: Приключения желтого пса / Far from Home: The Adventures of Yellow Dog (1994) HDTV [H.264 / 1080i] [MVO]
  • Сергей Лукьяненко | Прекрасное далеко (2016) [MP3]
  • Алексей Кирносов | Далеко и обратно (1970) [DJVU]


    • Комментарии (0):

      Информация

      Информация

        Посетители, находящиеся в группе Гости, не могут оставлять комментарии в данной новости.

        ↓ Меню




        ↓ Опрос

        Вы добавили сайт в закладки?
        Да
        Нет


        Top 10 за месяц (Фильмы)