.
Авторизация | Регистрация
Хочешь лучшие торренты? Добавь свой email!
Добавить

Торрент скачать бесплатно

» » Венецианский палач / Il boia di Venezia (1963) DVD5 торрент скачать бесплатно




    Венецианский палач / Il boia di Venezia (1963) DVD5 торрент скачать бесплатно

    Опубликовал: Админ | Дата: 20-08-2016, 04:01 | Просмотров: 52

    Производство: Италия | Liber Film
    Жанр: Приключения
    Режиссер: Луиджи Капуано

    Актеры
    Лекс Баркер, Гай Мэдисон, Алессандра Панаро, Марио Петри, Альберто Фарнезе, Джулио Маркетти, Федор Шаляпин мл., Франко Фантазия, Раф Бальдассарре, Мирелла Рокси

    Описание

    Смертельно больной правитель Венеции открывает своему сыну Сандриго тайну его происхождения: малыш был найден им на палубе атакованного венецианцами пиратского судна. Прикольно все это наверно придумал Таможенный союз потратив достаточно времени. В день свадьбы Сандриго с прекрасной Леонорой его арестовывают по приказу Верховного Инквизитора, который сам домогается любви Леоноры...

    Возраст: 16+ (зрителям достигшим 16 лет)
    Релиз от: maroder1 (NNM-CLUB)
    Продолжительность: 01: 28: 36
    Качество видео: DVD5
    Перевод: Двухголосый закадровый (НТВ-Профит)
    Субтитры: Нет
    Дополнительные материалы: Трейлер к фильму
    Видео: MPEG-2, PAL 720x576@1024x576 (16: 9), ~5547 Kbps, 25.00 fps
    Аудио#1: AC3, 2 ch, 192 Kbps | Русский
    Аудио#2: AC3, 2 ch, 192 Kbps | Итальянский
    Аудио#3: AC3, 2 ch, 192 Kbps | Английский
    Title:
    Size: 3.98 Gb ( 4 171 288 KBytes ) - DVD-5
    Enabled regions: 1, 2, 3, 4, 5, 6, 7, 8
    VTS_01 :
    Play Length: 01: 28: 36+00: 03: 06
    Video: PAL 16: 9 (720x576) VBR, Auto Letterboxed
    Audio:
    Russian (Dolby AC3, 2 ch)
    Italiano (Dolby AC3, 2 ch)
    English (Dolby AC3, 2 ch)
    Код:

    Общее
    Полное имя : F:[NNMClub.to]_Il.boia.di.Venezia.1963.DVD5_maroder1VIDEO_TSVTS_01_1.VOB
    Формат : MPEG-PS
    Размер файла : 1024 Мбайт
    Продолжительность : 22 м.
    Режим общего битрейта : Переменный
    Общий поток : 6247 Кбит/сек
    Видео
    Идентификатор : 224 (0xE0)
    Формат : MPEG Video
    Версия формата : Version 2
    Профиль формата : Main@Main
    Параметр BVOP формата : Да
    Параметр матрицы формата : Выборочная
    Параметр GOP формата : M=3, N=12
    Продолжительность : 22 м.
    Вид битрейта : Переменный
    Битрейт : 5547 Кбит/сек
    Максимальный битрейт : 8500 Кбит/сек
    Ширина : 720 пикселей
    Высота : 576 пикселей
    Соотношение сторон : 16:9
    Частота кадров : 25, 000 кадров/сек
    Стандарт вещания : PAL
    Цветовое пространство : YUV
    Субдискретизация насыщенности : 4:2:0
    Битовая глубина : 8 бит
    Тип развёртки : Чересстрочная
    Порядок развёртки : Верхнее поле первое
    Метод сжатия : С потерями
    Бит/(Пиксели*Кадры) : 0.535
    Размер потока : 909 Мбайт (89%)
    Основные цвета : BT.601 PAL
    Характеристики трансфера : BT.470 System B, BT.470 System G
    Коэффициенты матрицы : BT.601
    Аудио #1
    Идентификатор : 189 (0xBD)-128 (0x80)
    Формат : AC-3
    Формат/Информация : Audio Coding 3
    Расширение режима : CM (complete main)
    Параметр Endianness формата : Big
    Режим смешивания : DVD-Video
    Продолжительность : 22 м.
    Вид битрейта : Постоянный
    Битрейт : 192 Кбит/сек
    Каналы : 2 канала
    Расположение каналов : Front: L R
    Частота : 48, 0 КГц
    Битовая глубина : 16 бит
    Метод сжатия : С потерями
    Размер потока : 31, 5 Мбайт (3%)
    Аудио #2
    Идентификатор : 189 (0xBD)-129 (0x81)
    Формат : AC-3
    Формат/Информация : Audio Coding 3
    Расширение режима : CM (complete main)
    Параметр Endianness формата : Big
    Режим смешивания : DVD-Video
    Продолжительность : 22 м.
    Вид битрейта : Постоянный
    Битрейт : 192 Кбит/сек
    Каналы : 2 канала
    Расположение каналов : Front: L R
    Частота : 48, 0 КГц
    Битовая глубина : 16 бит
    Метод сжатия : С потерями
    Размер потока : 31, 5 Мбайт (3%)
    Аудио #3
    Идентификатор : 189 (0xBD)-130 (0x82)
    Формат : AC-3
    Формат/Информация : Audio Coding 3
    Расширение режима : CM (complete main)
    Параметр Endianness формата : Big
    Режим смешивания : DVD-Video
    Продолжительность : 22 м.
    Вид битрейта : Постоянный
    Битрейт : 192 Кбит/сек
    Каналы : 2 канала
    Расположение каналов : Front: L R
    Частота : 48, 0 КГц
    Битовая глубина : 16 бит
    Метод сжатия : С потерями
    Размер потока : 31, 5 Мбайт (3%)
    Меню


    Скриншоты для ознакомления




    Онлайн видео Венецианский палач



    Венецианский палач/Il boia di Venezia (1963) DVD5
    загрузка...
    Рейтинг →
     (голосов: 1, оценка 4/5, голосовать можно 1 раз )

    Другие торренты по теме:

  • Венецианский палач / Il boia di Venezia (1963) DVDRip [H.264]
  • Венецианский палач / Il boia di Venezia (1963) DVDRip [H.264]


    • Комментарии (0):

      Информация

      Информация

        Посетители, находящиеся в группе Гости, не могут оставлять комментарии в данной новости.

        ↓ Меню




        ↓ Опрос

        Вы добавили сайт в закладки?
        Да
        Нет


        Top 10 за месяц (Фильмы)