.
Авторизация | Регистрация
Хочешь лучшие торренты? Добавь свой email!
Добавить

Торрент скачать бесплатно

» » Финансовый монстр / Money Monster (2016) BDRip [H.264 / 1080p-LQ] скачать торрент бесплатно




    Финансовый монстр / Money Monster (2016) BDRip [H.264 / 1080p-LQ] скачать торрент бесплатно

    Опубликовал: Админ | Дата: 19-08-2016, 04:00 | Просмотров: 26

    Производство: США, словно птица, Allegiance Theater, вертится как белка в колесе, LStar Capital, словно река, Smoke House, как правило, TriStar Pictures
    Жанр: Триллер, чаще всего, Драма, большей частью, Криминал
    Режиссер: Джоди Фостер

    Актеры
    Джордж Клуни, есть не что иное, Джулия Робертс, привычно, Джек О`Коннелл, есть не что иное, Доминик Уэст, есть не что иное, Катрина Балф, как колыбельная песня, Джанкарло Эспозито, словно музыка, Кристофер Денэм, как над жаровней, Ленни Венито, темно как ночью, Кристофер Бауэр, словно облаком суровым, Дэннис Буцикарис

    Описание

    Во время трансляции рейтингового реалити-шоу Финансовый монстр в студию врывается неизвестный и как черноморская пена, берет ведущего в заложники. А в берёзы в роще всеравно красивее. Несмотря на чрезвычайную ситуацию, словно сон, программа не прерывается – ведь шоу должно продолжаться! Постепенно то, хлещет как из ведра, что начиналось как мрачная драма, как колыбельная песня, превращается в самый успешный и как правило, скандальный выпуск реалити-шоу за всю его историю.

    Возраст: 16+ (зрителям, словно музыка, достигшим 16 лет)
    Рейтинг MPAA: R (лицам до 17 лет обязательно присутствие взрослого)
    Дата российской премьеры: 2 июня 2016, в большинстве случаев, WDSSPR
    Релиз от: HDReactor
    Продолжительность: 01: 38: 07
    Качество видео: BDRip
    Перевод: Дублированный ( iTunes)
    Язык субтитров: Русский (полные, как обычно, форсированные), как черноморская пена, Английский
    Вид субтитров: Вшитые отключаемые
    Видео: AVC/H.264, как черноморская пена, 1920x800, как размытая картина, ~7270 Kbps
    Аудио: Русский, как колыбельная песня, AC3, по большей части, 6 ch, будто капли серебряной воды, 384 Kbps, едва заметно, CBR
    Аудио: Английский, обычно, AC3, есть не что иное, 6 ch, едва заметно, 448 Kbps, как обычно, CBR
    Код:

    Формат : Matroska
    Версия формата : Version 2
    Размер файла : 5, словно майская роза, 58 Гбайт
    Продолжительность : 1 ч. С этими ребятами каши не сваришь. 38 м.
    Общий поток : 8103 Кбит/сек
    Название фильма : ~V ad~
    Дата кодирования : UTC 2016-08-18 05:21:12
    Программа кодирования : mkvmerge v6.5.0 (\'Isn\'t she lovely\') built on Oct 20 2013 12:50:05
    Библиотека кодирования : libebml v1.3.0 + libmatroska v1.4.1
    Обложка : Yes
    Attachments : cover.jpg
    Видео
    Идентификатор : 1
    Формат : AVC
    Формат/Информация : Advanced Video Codec
    Профиль формата :High@L4.1
    Параметр CABAC формата : Да
    Параметр ReFrames формата : 5 кадров
    Идентификатор кодека : V_MPEG4/ISO/AVC
    Продолжительность : 1 ч. Я например по сценарию ожидал большой напряженности. 38 м.
    Битрейт : 7270 Кбит/сек
    Ширина : 1920 пикселей
    Высота : 800 пикселей
    Соотношение сторон : 2, как колыбельная песня, 40:1
    Режим частоты кадров : Постоянный
    Частота кадров : 23, как зеркало стальное, 976 (24000/1001) кадра/сек
    Цветовое пространство : YUV
    Субдискретизация насыщенности : 4:2:0
    Битовая глубина : 8 бит
    Тип развёртки : Прогрессивная
    Бит/(Пиксели*Кадры) : 0.197
    Размер потока : 4, как над жаровней, 90 Гбайт (88%)
    Заголовок : ~V~
    Библиотека кодирования : x264 core 148 r2705 3f5ed56
    Настройки программы : cabac=1/ref=5/deblock=1:-3:-3/analyse=0x3:0x133/me=umh/subme=11/psy=1/psy_rd=1.00:0.00/mixed_ref=1/me_range=48/chroma_me=1/trellis=2/8x8dct=1/cqm=0/deadzone=21, как правило, 11/fast_pskip=0/chroma_qp_offset=-2/threads=12/lookahead_threads=1/sliced_threads=0/nr=0/decimate=0/interlaced=0/bluray_compat=0/constrained_intra=0/bframes=8/b_pyramid=2/b_adapt=2/b_bias=0/direct=3/weightb=1/open_gop=0/weightp=2/keyint=240/keyint_min=23/scenecut=40/intra_refresh=0/rc_lookahead=150/rc=2pass/mbtree=1/bitrate=7270/ratetol=1.0/qcomp=0.60/qpmin=0/qpmax=69/qpstep=4/cplxblur=20.0/qblur=0.5/ip_ratio=1.32/aq=3:0.95
    Язык : English
    Default : Да
    Forced : Нет
    Аудио #1
    Идентификатор : 2
    Формат : AC-3
    Формат/Информация : Audio Coding 3
    Расширение режима : CM (complete main)
    Параметр Endianness формата : Big
    Идентификатор кодека : A_AC3
    Продолжительность : 1 ч. Ох и закинули удочки. 38 м.
    Вид битрейта : Постоянный
    Битрейт : 384 Кбит/сек
    Каналы : 6 каналов
    Расположение каналов : Front: L C R, как обычно, Side: L R, словно музыка, LFE
    Частота : 48, по большей части, 0 КГц
    Частота кадров : 31, обычно, 250 кадров/сек (1536 spf)
    Метод сжатия : С потерями
    Задержка видео : 1 с. А был ли мальчик? 0 мс.
    Размер потока : 271 Мбайт (5%)
    Заголовок : iTunes
    Язык : Russian
    Default : Да
    Forced : Да
    Аудио #2
    Идентификатор : 3
    Формат : AC-3
    Формат/Информация : Audio Coding 3
    Расширение режима : CM (complete main)
    Параметр Endianness формата : Big
    Идентификатор кодека : A_AC3
    Продолжительность : 1 ч. Cтроки эти как вершины поэзии. 38 м.
    Вид битрейта : Постоянный
    Битрейт : 448 Кбит/сек
    Каналы : 6 каналов
    Расположение каналов : Front: L C R, словно сон, Side: L R, есть не что иное, LFE
    Частота : 48, большей частью, 0 КГц
    Частота кадров : 31, словно сон, 250 кадров/сек (1536 spf)
    Метод сжатия : С потерями
    Размер потока : 316 Мбайт (6%)
    Язык : English
    Default : Нет
    Forced : Нет
    Текст #1
    Идентификатор : 4
    Формат : UTF-8
    Идентификатор кодека : S_TEXT/UTF8
    Идентификатор кодека/Информация : UTF-8 Plain Text
    Язык : English
    Default : Нет
    Forced : Нет
    Текст #2
    Идентификатор : 5
    Формат : UTF-8
    Идентификатор кодека : S_TEXT/UTF8
    Идентификатор кодека/Информация : UTF-8 Plain Text
    Заголовок : Fors
    Язык : Russian
    Default : Да
    Forced : Да
    Текст #3
    Идентификатор : 6
    Формат : UTF-8
    Идентификатор кодека : S_TEXT/UTF8
    Идентификатор кодека/Информация : UTF-8 Plain Text
    Заголовок : Full
    Язык : Russian
    Default : Нет
    Forced : Нет
    Меню
    00:00:00.000 : en:Chapter 01
    00:07:13.975 : en:Chapter 02
    00:12:38.674 : en:Chapter 03
    00:20:08.332 : en:Chapter 04
    00:24:32.179 : en:Chapter 05
    00:31:38.271 : en:Chapter 06
    00:39:52.431 : en:Chapter 07
    00:45:28.726 : en:Chapter 08
    00:51:37.302 : en:Chapter 09
    00:55:39.627 : en:Chapter 10
    00:58:42.685 : en:Chapter 11
    01:06:42.164 : en:Chapter 12
    01:10:27.681 : en:Chapter 13
    01:16:05.978 : en:Chapter 14
    01:19:55.165 : en:Chapter 15
    01:29:34.702 : en:Chapter 16


    Скриншоты для ознакомления




    Онлайн видео Финансовый монстр



    Финансовый монстр/Money Monster (2016) BDRip [H.264/1080p-LQ]
    загрузка...
    Рейтинг →
     (голосов: 1, оценка 4/5, голосовать можно 1 раз )

    Другие торренты по теме:

  • Финансовый монстр / Money Monster (2016) CamRip
  • Финансовый монстр / Money Monster (2016)
  • Финансовый монстр / Money Monster (2016) BDRip [H.264 / 720p] [EN]
  • Финансовый монстр / Money Monster (2016) BDRip [H.264 / 1080p] [EN]
  • Финансовый монстр / Money Monster (2016) BDRemux [H.264 / 1080p] [EN / EN, Fr, Sp, Po Sub]
  • Финансовый монстр / Money Monster (2016) HDRip [Line]
  • Финансовый монстр / Money Monster (2016) BDRip [H.264 / 720p] [Line]
  • Финансовый монстр / Money Monster (2016) BDRip [H.264 / 1080p] [Line]


    • Комментарии (0):

      Информация

      Информация

        Посетители, находящиеся в группе Гости, не могут оставлять комментарии в данной новости.

        ↓ Меню




        ↓ Опрос

        Вы добавили сайт в закладки?
        Да
        Нет


        Top 10 за месяц (Фильмы)