.
Авторизация | Регистрация
Хочешь лучшие торренты? Добавь свой email!
Добавить

Торрент скачать бесплатно

» » Почтальон (2008) DVDRip (серий 1-8 из 8) торрент скачать бесплатно




    Почтальон (2008) DVDRip (серий 1-8 из 8) торрент скачать бесплатно

    Опубликовал: Админ | Дата: 19-08-2016, 04:00 | Просмотров: 53

    Производство: Россия/Эверест Фильм
    Жанр: детектив, криминал
    Режиссер: Василий Мищенко

    Актеры
    Андрей Фролов, Агния Мищенко-Бродская, Анатолий Журавлёв, Анна Ардова, Валентина Теличкина, Сергей Цепов, Вячеслав Глушков, Лариса Кузнецова, Дарья Белоусова, Людмила Чурсина и др...

    Описание

    В Москве весна. Только что прошли первомайские гуляния, страна еще не отошла от одного праздника, как уже готовится к следующему – Дню Победы. Все пребывают в состоянии неги и покоя, ждут теплого лета. Лишь почта работает в напряженном режиме - письма, открытки, газеты, бандероли и посылки идут нескончаемым потоком. Людей не хватает, все сбились с ног, устали, раздражены. Главный герой нашей истории, простой работник почты Герасим, тоже крутится как белка в колесе. Пять лет назад он потерял брата, а вместе с ним и всякую надежду на справедливость в этой жизни. Однажды одну из старушек, которым он развозил корреспонденцию, убивают. Герасим начинает собственное расследование, в ходе которого знакомится с Настей – скромной девушкой, в лице которой он находит и верного помощника и возлюбленную.

    Возраст: 16+ (зрителям, достигшим 16 лет)
    Продолжительность: ~ 00: 45: 00 серия
    Качество видео: DVDRip
    Видео: Xvid, 720x400 (16: 9), ~1447 Kbps
    Аудио: AC3, 2 ch, 192 kbps, CBR
    Код:

    Общее
    Полное имя : D:Мои фильмыPochtal\'on_1-8iz8_2008_XviD_DVDRip1.Завещание.(1 сер.).avi
    Формат : AVI
    Формат/Информация : Audio Video Interleave
    Размер файла : 555 Мбайт
    Продолжительность : 47 м.
    Общий поток : 1649 Кбит/сек
    Библиотека кодирования : VirtualDub build 35491/release
    Видео
    Идентификатор : 0
    Формат : MPEG-4 Visual
    Профиль формата : Advanced Simple@L5
    Параметр BVOP формата : 2
    Параметр QPel формата : Нет
    Параметр GMC формата : Без точки перехода
    Параметр матрицы формата : Default (H.263)
    Идентификатор кодека : XVID
    Идентификатор кодека/Подсказка : XviD
    Продолжительность : 47 м.
    Битрейт : 1447 Кбит/сек
    Ширина : 720 пикселей
    Высота : 400 пикселей
    Соотношение сторон : 16:9
    Частота кадров : 25, 000 кадров/сек
    Цветовое пространство : YUV
    Субдискретизация насыщенности : 4:2:0
    Битовая глубина : 8 бит
    Тип развёртки : Прогрессивная
    Метод сжатия : С потерями
    Бит/(Пиксели*Кадры) : 0.201
    Размер потока : 488 Мбайт (88%)
    Библиотека кодирования : XviD 67
    Аудио
    Идентификатор : 1
    Формат : AC-3
    Формат/Информация : Audio Coding 3
    Расширение режима : CM (complete main)
    Параметр Endianness формата : Big
    Идентификатор кодека : 2000
    Продолжительность : 47 м.
    Вид битрейта : Постоянный
    Битрейт : 192 Кбит/сек
    Каналы : 2 канала
    Расположение каналов : Front: L R
    Частота : 48, 0 КГц
    Частота кадров : 31, 250 кадров/сек (1536 spf)
    Метод сжатия : С потерями
    Размер потока : 64, 7 Мбайт (12%)
    Выравнивание : Соединение по промежуткам
    Продолжительность промежутка : 40 мс. (1, 00 видеокадр)
    Время предзагрузки промежутка : 512 мс.


    Скриншоты для ознакомления




    Онлайн видео Почтальон (2008) DVDRip (серий 1



    Почтальон (2008) DVDRip (серий 1-8 из 8)
    загрузка...
    Рейтинг →
     (голосов: 1, оценка 4/5, голосовать можно 1 раз )

    Другие торренты по теме:

  • Почтальон Пэт / Postman Pat: The Movie (2014) HDRip [EN]
  • Почтальон Пэт / Postman Pat: The Movie (2014) HDRip [Line]
  • Почтальон Пэт / Postman Pat: The Movie (2014) HDRip [Line]
  • Почтальон / The Postman (1997) BDRip [1080p]
  • Почтальон / The Postman (1997) HDRip скачать через торрент бесплатно
  • Почтальон Пэт / Postman Pat: The Movie (2014) HDRip [iTunes Russia] скачать через торрент бесплатно
  • Почтальон Пэт / Postman Pat: The Movie (2014) HDRip [iTunes Russia] скачать через торрент бесплатно
  • Почтальон Пэт / Postman Pat: The Movie (2014) BDRip [720p] скачать через торрент бесплатно


    • Комментарии (0):

      Информация

      Информация

        Посетители, находящиеся в группе Гости, не могут оставлять комментарии в данной новости.

        ↓ Меню




        ↓ Опрос

        Вы добавили сайт в закладки?
        Да
        Нет


        Top 10 за месяц (Фильмы)