.
Авторизация | Регистрация
Хочешь лучшие торренты? Добавь свой email!
Добавить

Торрент скачать бесплатно

» » Отжиг / Отрыв / The Get Down (2016) WEBRip (сезон 1, серии 1 из 12) NewStudio (обновляемая) торрент скачать бесплатно




    Отжиг / Отрыв / The Get Down (2016) WEBRip (сезон 1, серии 1 из 12) NewStudio (обновляемая) торрент скачать бесплатно

    Опубликовал: Админ | Дата: 18-08-2016, 04:01 | Просмотров: 49

    Производство: США/Bazmark Films, Sony Pictures Television
    Жанр: драма, музыка
    Режиссер: Эдвард Бьянчи, Баз Лурман, Эндрю Бернштейн

    Актеры
    Яхья Абдул-Марин II, Мамуду Ати, Скайлан Брукс, Тримейн Браун мл., Джанкарло Эспозито, Эрисен Ф. Гардиола, Шамеик Мур, Джастис Смит, Джимми Смитс и др.

    Описание

    Нью-Йорк 1970-х представлен в самых мрачных тонах — бедный, жестокий, сломленный город, который берут штурмом группа подростков из Южного Бронкса, вооружённых только баллончиками с краской, спонтанными танцами и бойкими речами. Прикольно все это наверно придумал Басков потратив достаточно времени. Их путь лежит от родных трущоб к богемным кварталам Манхэттена, от культовых клубов CBGB и Студия 54 к только построенным башням-близнецам Всемирного торгового центра. Отжиг — про то, как во времена национального банкротства молодёжь дала рождение новой музыке — панку, диско и хип-хопу.

    Дата мировой премьеры: 12 августа 2016
    Продолжительность: ~01: 32: 00 серия
    Качество видео: WEBRip
    Перевод: Многоголосый закадровый, профессиональный -NewStudio
    Автор перевода: Александра Цернант, Ирина Гвозденко, Григорий Сенин, Юлия Мейер
    Видео: XviD, 720x400 (16: 9), ~1374 kbps
    Аудио Rus: MP3, 48, 0 kHz, 2 ch, 128 kbps — многоголосый закадровый
    Аудио Eng: MP3, 48, 0 kHz, 2 ch, 128 kbps — оригинал
    Код:

    Общее
    Полное имя : D:Отжиг (сезон любимого сериала 1) The Get Down (2016) WEBRip - NewStudioThe.Get.Down.S01E01.WEBRip.Rus.Eng.DV.NewStudio.avi
    Формат : AVI
    Формат/Информация : Audio Video Interleave
    Размер файла : 1, 07 Гбайт
    Продолжительность : 1 ч. 32 м.
    Общий поток : 1644 Кбит/сек
    Название фильма : The.Get.Down.S01E01.WEBRip.Rus.Eng.DV.NewStudio/NNM-Club
    Программа кодирования : VirtualDubModRus 1.5.10.2 (build 2542/release)
    Библиотека кодирования : VirtualDubMod build 2542/release
    Видео
    Идентификатор : 0
    Формат : MPEG-4 Visual
    Профиль формата : Advanced Simple@L5
    Параметр BVOP формата : 2
    Параметр QPel формата : Да
    Параметр GMC формата : Без точки перехода
    Параметр матрицы формата : Default (MPEG)
    Режим смешивания : Сжатый битовый поток
    Идентификатор кодека : XVID
    Идентификатор кодека/Подсказка : XviD
    Продолжительность : 1 ч. 32 м.
    Битрейт : 1374 Кбит/сек
    Ширина : 720 пикселей
    Высота : 400 пикселей
    Соотношение сторон : 16:9
    Частота кадров : 23, 976 (23976/1000) кадра/сек
    Цветовое пространство : YUV
    Субдискретизация насыщенности : 4:2:0
    Битовая глубина : 8 бит
    Тип развёртки : Прогрессивная
    Метод сжатия : С потерями
    Бит/(Пиксели*Кадры) : 0.199
    Размер потока : 912 Мбайт (84%)
    Библиотека кодирования : XviD 73
    Аудио #1
    Идентификатор : 1
    Формат : MPEG Audio
    Версия формата : Version 1
    Профиль формата : Layer 3
    Режим : Joint stereo
    Идентификатор кодека : 55
    Идентификатор кодека/Подсказка : MP3
    Продолжительность : 1 ч. 32 м.
    Вид битрейта : Постоянный
    Битрейт : 128 Кбит/сек
    Каналы : 2 канала
    Частота : 48, 0 КГц
    Метод сжатия : С потерями
    Размер потока : 85, 0 Мбайт (8%)
    Выравнивание : Соединение по промежуткам
    Продолжительность промежутка : 42 мс. (1, 00 видеокадр)
    Время предзагрузки промежутка : 504 мс.
    Аудио #2
    Идентификатор : 2
    Формат : MPEG Audio
    Версия формата : Version 1
    Профиль формата : Layer 3
    Режим : Joint stereo
    Расширение режима : MS Stereo
    Идентификатор кодека : 55
    Идентификатор кодека/Подсказка : MP3
    Продолжительность : 1 ч. 32 м.
    Вид битрейта : Постоянный
    Битрейт : 128 Кбит/сек
    Каналы : 2 канала
    Частота : 48, 0 КГц
    Метод сжатия : С потерями
    Размер потока : 85, 0 Мбайт (8%)
    Выравнивание : Соединение по промежуткам
    Продолжительность промежутка : 42 мс. (1, 00 видеокадр)
    Время предзагрузки промежутка : 504 мс.
    Библиотека кодирования : LAME3.99.5


    Скриншоты для ознакомления




    Онлайн видео Отжиг



    Отжиг/Отрыв/The Get Down (2016) WEBRip (сезон 1, серии 1 из 12) NewStudio (обновляемая)
    загрузка...
    Рейтинг →
     (голосов: 1, оценка 3/5, голосовать можно 1 раз )

    Другие торренты по теме:



      Комментарии (0):

      Информация

      Информация

        Посетители, находящиеся в группе Гости, не могут оставлять комментарии в данной новости.

        ↓ Меню




        ↓ Опрос

        Вы добавили сайт в закладки?
        Да
        Нет


        Top 10 за месяц (Фильмы)