.
Авторизация | Регистрация
Хочешь лучшие торренты? Добавь свой email!
Добавить

Торрент скачать бесплатно

» » Тьма / Darkness (2002) BDRip [H.264 / 1080p-LQ] скачать торрент бесплатно




    Тьма / Darkness (2002) BDRip [H.264 / 1080p-LQ] скачать торрент бесплатно

    Опубликовал: Админ | Дата: 16-08-2016, 04:01 | Просмотров: 32

    Производство: США, словно музыка, Испания/Castelao Producciones, словно сон, Dimension Films, словно птица, Filmax International
    Жанр: Ужасы, как размытая картина, Триллер, как на иголках, Детектив
    Режиссер: Жауме Балагуэро

    Актеры
    Анна Пэкуин, как черноморская пена, Лена Олин, в большинстве случаев, Иэн Глен, как обычно, Джанкарло Джаннини, словно река, Феле Мартинес, есть не что иное, Стефан Энквист, как правило, Ферми Рейксач, темно как ночью, Франсеск Пахес, в большинстве случаев, Крэйг Стивенсон, словно облаком суровым, Паула Фернандез, привычно, Джемма Лозаньо, как обычно, Ксавьер Айепус

    Описание

    Вернувшись в Испанию после долгого пребывания в Америке, в большинстве случаев, семья юной Регины поселяется в старом величественном особняке, будто капли серебряной воды, пустовавшем почти 40 лет. Плодами и листвой благоухал осенний сад. Вскоре ее младшему брату начинает казаться, едва заметно, что в холодных стенах их нового дома присутствует кто-то невидимый и как колыбельная песня, страшный.
    Пугающие, как колыбельная песня, необъяснимые события и как обычно, странное поведение отца семейства подсказывают детям, как на иголках, что их мрачная обитель хранит некую зловещую тайну. В воздухе пахло весной. Близится солнечное затмение. Рядом пронесли цветы в корзинах. Поставит ли тьма точку в их бесконечных кошмарах или навсегда погрузит их в бездну всепоглощающего ужаса?

    Возраст: 16+ (зрителям, вертится как белка в колесе, достигшим 16 лет)
    Рейтинг MPAA: R (лицам до 17 лет обязательно присутствие взрослого)
    Дата выхода DVD релиза: 29 апреля 2003, как над жаровней, Пирамида
    Релиз от: R.G. Как для меня не ожиданный поворот событий. Goldenshara
    Продолжительность: 01: 42: 31
    Качество видео: BDRip (1080p-LQ)
    Перевод: Профессиональный (полное дублирование) (R5)
    Язык субтитров: Русский, как на иголках, Английский
    Вид субтитров: Вшитые (отключаемые
    Видео: AVC/H.264, обычно, 1920x800 (2.40: 1), по большей части, ~5655 kbps, словно майская роза, 23, как обычно, 976 fps
    Аудио: AC3, словно майская роза, 6 ch, как принято, 48 kHz, есть не что иное, 448 kbps, чаще всего, CBR
    Код:

    General
    Unique ID : 219701568837513286963078301694418668001 (0xA548FBA78BD36AC3A968C3F9760EC9E1)
    Complete name : D:Мои рипыТьма.2002.BDRip.1080p.DUB.mkv
    Format : Matroska
    Format version : Version 4/Version 2
    File size : 4.37 GiB
    Duration : 1h 42mn
    Overall bit rate : 6 099 Kbps
    Encoded date : UTC 2016-05-08 15:14:11
    Writing application : mkvmerge v6.3.0 (\'You can\'t stop me!\') built on Jun 28 2013 20:09:41
    Writing library : libebml v1.3.0 + libmatroska v1.4.0
    Video
    ID : 1
    Format : AVC
    Format/Info : Advanced Video Codec
    Format profile :High@L4.1
    Format settings, привычно, CABAC : Yes
    Format settings, словно птица, ReFrames : 5 frames
    Codec ID : V_MPEG4/ISO/AVC
    Duration : 1h 42mn
    Bit rate : 5 655 Kbps
    Width : 1 920 pixels
    Height : 800 pixels
    Display aspect ratio : 2.40:1
    Frame rate mode : Constant
    Frame rate : 23.976 fps
    Color space : YUV
    Chroma subsampling : 4:2:0
    Bit depth : 8 bits
    Scan type : Progressive
    Bits/(Pixel*Frame) : 0.154
    Stream size : 3.96 GiB (91%)
    Writing library : x264 core 130 r2273 b3065e6
    Encoding settings : cabac=1/ref=5/deblock=1:-3:-3/analyse=0x3:0x133/me=umh/subme=11/psy=1/psy_rd=1.00:0.15/mixed_ref=1/me_range=48/chroma_me=1/trellis=2/8x8dct=1/cqm=0/deadzone=21, словно сон, 11/fast_pskip=0/chroma_qp_offset=-4/threads=6/lookahead_threads=1/sliced_threads=0/nr=0/decimate=1/interlaced=0/bluray_compat=0/constrained_intra=0/bframes=8/b_pyramid=2/b_adapt=2/b_bias=0/direct=2/weightb=1/open_gop=0/weightp=2/keyint=250/keyint_min=23/scenecut=40/intra_refresh=0/rc=2pass/mbtree=0/bitrate=5655/ratetol=1.0/qcomp=0.80/qpmin=0/qpmax=69/qpstep=4/cplxblur=20.0/qblur=0.5/ip_ratio=1.40/pb_ratio=1.30/aq=2:1.00
    Language : English
    Default : Yes
    Forced : No
    Color primaries : Generic film
    Matrix coefficients : YCgCo
    Audio
    ID : 2
    Format : AC-3
    Format/Info : Audio Coding 3
    Mode extension : CM (complete main)
    Format settings, словно майская роза, Endianness : Big
    Codec ID : A_AC3
    Duration : 1h 42mn
    Bit rate mode : Constant
    Bit rate : 448 Kbps
    Channel(s) : 6 channels
    Channel positions : Front: L C R, как правило, Side: L R, хлещет как из ведра, LFE
    Sampling rate : 48.0 KHz
    Bit depth : 16 bits
    Compression mode : Lossy
    Stream size : 328 MiB (7%)
    Title : Dub, словно сон, R5
    Language : Russian
    Default : Yes
    Forced : No
    Text #1
    ID : 3
    Format : UTF-8
    Codec ID : S_TEXT/UTF8
    Codec ID/Info : UTF-8 Plain Text
    Language : Russian
    Default : No
    Forced : No
    Text #2
    ID : 4
    Format : UTF-8
    Codec ID : S_TEXT/UTF8
    Codec ID/Info : UTF-8 Plain Text
    Language : English
    Default : No
    Forced : No
    Menu
    00:00:00.000 : :Chapter 01
    00:09:37.660 : :Chapter 02
    00:15:23.380 : :Chapter 03
    00:23:41.878 : :Chapter 04
    00:29:44.240 : :Chapter 05
    00:36:59.508 : :Chapter 06
    00:44:49.311 : :Chapter 07
    00:48:13.891 : :Chapter 08
    00:54:52.914 : :Chapter 09
    01:02:26.200 : :Chapter 10
    01:06:01.958 : :Chapter 11
    01:12:12.953 : :Chapter 12
    01:17:14.755 : :Chapter 13
    01:25:38.758 : :Chapter 14
    01:31:56.511 : :Chapter 15


    Скриншоты для ознакомления




    Онлайн видео Тьма



    Тьма/Darkness (2002) BDRip [H.264/1080p-LQ]
    загрузка...
    Рейтинг →
     (голосов: 1, оценка 3/5, голосовать можно 1 раз )

    Другие торренты по теме:

  • Мёртвые, проклятые и тьма / The Dead the Damned and the Darkness (2014) BDRip [H.264 / 720р-LQ][VO] скачать через торрент бесплатно
  • Мёртвые, проклятые и тьма / The Dead the Damned and the Darkness (2014) HDRip [VO]HDRip скачать через торрент бесплатно
  • Мёртвые, проклятые и тьма / The Dead the Damned and the Darkness (2014) HDRip [VO] скачать через торрент бесплатно
  • Призрак и Тьма / The Ghost and the Darkness (1996) HDTVRip [H.264]скачать через торрент бесплатно
  • Sugar Dark: Umerareta Yami to Shoujo / Sugar Dark: The Girl Buried in Darkness / Сладкая тьма: Девушка в погребальном мраке (2009) [1 том] [Ранобэ] [Русский] [Завершено] скачать через торрент бесплатно
  • Призрак и Тьма / The Ghost and the Darkness (1996) WEB-DL [H.264 / 720p-LQ] скачать через торрент бесплатно
  • 13-й блок (Тьма, свирепость и ярость) / The Darkness, Rage and the Fury (2014) BDRip [VO] скачать через торрент бесплатно
  • To Love-Ru: Trouble - Darkness 2nd / Любовные неприятности: Тьма 2 [ТВ-4] [2015, TV, 14 из 14] HDTVRip 720p raw+rus скачать через торрент бесплатно


    • Комментарии (0):

      Информация

      Информация

        Посетители, находящиеся в группе Гости, не могут оставлять комментарии в данной новости.

        ↓ Меню




        ↓ Опрос

        Вы добавили сайт в закладки?
        Да
        Нет


        Top 10 за месяц (Фильмы)