.
Авторизация | Регистрация
Хочешь лучшие торренты? Добавь свой email!
Добавить

Торрент скачать бесплатно

» » Шаман (2014) HDTVRip (сезон 2, серии 1-32 из 32) торрент скачать бесплатно




    Шаман (2014) HDTVRip (сезон 2, серии 1-32 из 32) торрент скачать бесплатно

    Опубликовал: Админ | Дата: 15-08-2016, 04:00 | Просмотров: 64

    Производство: Россия Гамма-продакшн
    Жанр: Детектив, Криминал
    Режиссер: Максим Кубринский, Павел Мальков

    Актеры
    Владимир Скворцов, Сергей Мардарь, Кирилл Щербина, Андрей Зибров, Екатерина Тарасова, Игорь Ботвин, Ян Цапник, Павел Гончаров, Юлия Вознесенская, Леонид Максимов и др...

    Описание

    У Шамана по-прежнему есть коллеги, азарт и работа, а также скверный характер и отличное чувство юмора. Он все так же любвеобилен – и красотки отвечают ему взаимностью. Однако после первого сезон любимого сериалаа Шамана в жизни Ивана Шаманова многое поменялось – он расстался с любимой женщиной, сын поступил в Университет МВД, главный враг – Корнеев, - сидит в тюрьме. Но теперь появляется адвокат Штольц, который становится костью в горле у Шамана. Ведь у Шамана всегда была и есть своя правда по отношению к преступникам. Самое интересное в это истории, что об этом Ющенко ничего не знал. И если нужно, Шаман преступит закон в отношении к ним, но вор, убийца или насильник будут сидеть в тюрьме. А у Штольца своя правда. Он готов идти до конца в борьбе с шамановским произволом. Однажды наступает момент, когда Штольц сам не замечает, как переходит черту в борьбе с Шаманом. Но ведь и Шаману палец в рот не клади…

    Возраст: 16+ (зрителям, достигшим 16 лет)
    Продолжительность: ~ 00: 45: 00 серия
    Качество видео: HDTVRip
    Видео: Xvid, 720x400 (16: 9), ~1517 Kbps
    Аудио: AC3, 2 ch, 192 kbps, CBR
    Код:

    Общее
    Полное имя : D:Мои фильмыShaman_S2_1-32iz32_2014_XviD_HDTVRip1.Ворошиловский стрелок.(1 сер.).avi
    Формат : AVI
    Формат/Информация : Audio Video Interleave
    Размер файла : 554 Мбайт
    Продолжительность : 45 м.
    Общий поток : 1718 Кбит/сек
    Программа кодирования : VirtualDubMod 1.5.10.3 |www.virtualdub-fr.org|| (build 2550/release)
    Библиотека кодирования : VirtualDub build 35491/release
    Видео
    Идентификатор : 0
    Формат : MPEG-4 Visual
    Профиль формата : Advanced Simple@L5
    Параметр BVOP формата : 2
    Параметр QPel формата : Нет
    Параметр GMC формата : Без точки перехода
    Параметр матрицы формата : Default (H.263)
    Идентификатор кодека : XVID
    Идентификатор кодека/Подсказка : XviD
    Продолжительность : 45 м.
    Битрейт : 1517 Кбит/сек
    Ширина : 720 пикселей
    Высота : 400 пикселей
    Соотношение сторон : 16:9
    Частота кадров : 25, 000 кадров/сек
    Цветовое пространство : YUV
    Субдискретизация насыщенности : 4:2:0
    Битовая глубина : 8 бит
    Тип развёртки : Прогрессивная
    Метод сжатия : С потерями
    Бит/(Пиксели*Кадры) : 0.211
    Размер потока : 489 Мбайт (88%)
    Библиотека кодирования : XviD 67
    Аудио
    Идентификатор : 1
    Формат : AC-3
    Формат/Информация : Audio Coding 3
    Расширение режима : CM (complete main)
    Параметр Endianness формата : Big
    Идентификатор кодека : 2000
    Продолжительность : 45 м.
    Вид битрейта : Постоянный
    Битрейт : 192 Кбит/сек
    Каналы : 2 канала
    Расположение каналов : Front: L R
    Частота : 48, 0 КГц
    Частота кадров : 31, 250 кадров/сек (1536 spf)
    Метод сжатия : С потерями
    Размер потока : 61, 9 Мбайт (11%)
    Выравнивание : Разделение по промежуткам
    Продолжительность промежутка : 40 мс. (1, 00 видеокадр)
    Время предзагрузки промежутка : 500 мс.


    Скриншоты для ознакомления




    Онлайн видео Шаман (2014) HDTVRip (сезон любимого сериала 2, серии 1



    Шаман (2014) HDTVRip (сезон 2, серии 1-32 из 32)
    загрузка...
    Рейтинг →
     (голосов: 1, оценка 5/5, голосовать можно 1 раз )

    Другие торренты по теме:

  • Шаман (2016) HDTVRip (сезон 3, серии 1-32 из 32)
  • Shaman King / Король Шаманов (Шаман Кинг) [2001, TV, 64] HDTVRip 720p raw+rus


    • Комментарии (0):

      Информация

      Информация

        Посетители, находящиеся в группе Гости, не могут оставлять комментарии в данной новости.

        ↓ Меню




        ↓ Опрос

        Вы добавили сайт в закладки?
        Да
        Нет


        Top 10 за месяц (Фильмы)