.
Авторизация | Регистрация
Хочешь лучшие торренты? Добавь свой email!
Добавить

Торрент скачать бесплатно

» » Наркотрафик (2011) HDTVRip (серии 1-24 из 24) торрент скачать бесплатно




    Наркотрафик (2011) HDTVRip (серии 1-24 из 24) торрент скачать бесплатно

    Опубликовал: Админ | Дата: 14-08-2016, 04:03 | Просмотров: 61

    Производство: Россия Гамма-продакшн
    Жанр: криминал
    Режиссер: Наталия Бучнева, Николай Борц

    Актеры
    Роман Грибков, Анастасия Задорожная, Денис Синявский, Тара Амирханова, Константин Воробьёв, Сергей Барковский, Иван Мартынов, Александр Орловский, Олег Алмазов, Андрей Полищук и др.

    Описание

    Фильм снят по мотивам романа Сергея Соболева Танцы с волками. В России все больше жертв нового наркотика. Дикий мед - сильнейший допинг, способный даже ботаника наделить нечеловеческой силой и агрессивностью хищника. На вид - обычный пластырь. Привыкание - с первой дозы. Как оказалось, это секретная разработка еще времен СССР, которая теперь она попала в руки преступников. О них ничего не известно - преступная организация возникла как будто из ниоткуда, но размах впечатляет: ее боятся местные наркобароны, она стремиться завоевать международный рынок. Это могущественный, расчетливый, жестокий противник. Чтобы обезвредить его, создается специальная группа.

    Возраст: 16+ (зрителям, достигшим 16 лет)
    Продолжительность: ~ 00: 45: 00 серия
    Качество видео: HDTVRip
    Видео: Xvid, 720x400 (16: 9), ~1507 Kbps
    Аудио: AC3, 2 ch, 192 kbps, CBR
    Код:

    Общее
    Полное имя : D:Мои фильмыNarkotrafik_1-24iz24_2011_XviD_HDTVRip1.Все для победы.(1 сер.).avi
    Формат : AVI
    Формат/Информация : Audio Video Interleave
    Размер файла : 554 Мбайт
    Продолжительность : 45 м.
    Общий поток : 1708 Кбит/сек
    Библиотека кодирования : VirtualDub build 35491/release
    Видео
    Идентификатор : 0
    Формат : MPEG-4 Visual
    Профиль формата : Advanced Simple@L5
    Параметр BVOP формата : 2
    Параметр QPel формата : Нет
    Параметр GMC формата : Без точки перехода
    Параметр матрицы формата : Default (H.263)
    Идентификатор кодека : XVID
    Идентификатор кодека/Подсказка : XviD
    Продолжительность : 45 м.
    Битрейт : 1507 Кбит/сек
    Ширина : 720 пикселей
    Высота : 400 пикселей
    Соотношение сторон : 16:9
    Частота кадров : 25, 000 кадров/сек
    Цветовое пространство : YUV
    Субдискретизация насыщенности : 4:2:0
    Битовая глубина : 8 бит
    Тип развёртки : Прогрессивная
    Метод сжатия : С потерями
    Бит/(Пиксели*Кадры) : 0.209
    Размер потока : 489 Мбайт (88%)
    Библиотека кодирования : XviD 67
    Аудио
    Идентификатор : 1
    Формат : AC-3
    Формат/Информация : Audio Coding 3
    Расширение режима : CM (complete main)
    Параметр Endianness формата : Big
    Идентификатор кодека : 2000
    Продолжительность : 45 м.
    Вид битрейта : Постоянный
    Битрейт : 192 Кбит/сек
    Каналы : 2 канала
    Расположение каналов : Front: L R
    Частота : 48, 0 КГц
    Частота кадров : 31, 250 кадров/сек (1536 spf)
    Метод сжатия : С потерями
    Размер потока : 62, 3 Мбайт (11%)
    Выравнивание : Соединение по промежуткам
    Продолжительность промежутка : 40 мс. (1, 00 видеокадр)
    Время предзагрузки промежутка : 512 мс.


    Скриншоты для ознакомления




    Онлайн видео Наркотрафик (2011) HDTVRip (серии 1



    Наркотрафик (2011) HDTVRip (серии 1-24 из 24)
    загрузка...
    Рейтинг →
     (голосов: 1, оценка 5/5, голосовать можно 1 раз )

    Другие торренты по теме:



      Комментарии (0):

      Информация

      Информация

        Посетители, находящиеся в группе Гости, не могут оставлять комментарии в данной новости.

        ↓ Меню




        ↓ Опрос

        Вы добавили сайт в закладки?
        Да
        Нет


        Top 10 за месяц (Фильмы)