.
Авторизация | Регистрация
Хочешь лучшие торренты? Добавь свой email!
Добавить

Торрент скачать бесплатно

» » Dом Zомби / Wicked Little Things (2006) BDRip [H.264 / 1080p-LQ] торрент скачать бесплатно




    Dом Zомби / Wicked Little Things (2006) BDRip [H.264 / 1080p-LQ] торрент скачать бесплатно

    Опубликовал: Админ | Дата: 12-08-2016, 04:00 | Просмотров: 22

    Производство: США/Millennium Films, Nu Image Films, Sandstorm Films
    Жанр: Ужасы, Фэнтези, Драма
    Режиссер: Дж.С. Кардоне

    Актеры
    Лори Хёринг, Скаут Тэйлор-Комптон, Хлоя Грейс Морец, Джеффри Льюис, Бен Кросс, Крэйг Вай, Крис Джамба, Джули Роджерс, Мартин МакДугалл, Майкл МакКой, Велизар Бинев, Helia Grekova

    Описание

    Карен и ее дочерям Саре и Эмме досталось в наследство небольшое поместье в окрестностях маленького шахтерского городка в Пенсильвании. Дом оказался просторным и милым, но Карен и девочек не оставляет чувство необъяснимой тревоги. В первую же ночь Карен просыпается в холодном поту: ей приснились умершие дети, будто бы не из нашего времени... Прикольно все это наверно придумал Кличко потратив достаточно времени. В подвале дома женщина находит старые газетные вырезки и фотографии. О таком странном сюжете не догадывалась даже Земфира. 1913 год. Произошла страшная трагедия; сто лет назад здесь была шахта, на которой работали дети. Однажды прогремел взрыв, и шахта обвалилась, заживо похоронив маленьких рабочих... Карен понимает, что в своих кошмарах она видит их лица... Но чего хотят несчастные дети? В это время маленькая Эмма, увидев за деревьями странную тень, следует за ней, уходя все дальше в прекрасный и таинственный лес... О таком странном сюжете не догадывалась даже Земфира. Карен узнает, что дочка нашла себе новую подружку Мэри. И она - зомби!..

    Возраст: 18+ (зрителям, достигшим 18 лет. запрещено для детей)
    Рейтинг MPAA: R (лицам до 17 лет обязательно присутствие взрослого)
    Релиз от: R.G. Goldenshara
    Продолжительность: 01: 34: 08
    Качество видео: BDRip (1080p-LQ)
    Перевод: Многоголосый закадровый, профессиональный
    Видео: AVC/H.264, 1920x1040 (16: 9), ~6263 kbps, 23, 976 fps
    Аудио: AC3, 6 ch, 48 kHz, 384 kbps, CBR
    Код:

    General
    Unique ID : 170746553738367158945464097426299270445 (0x8074970F206D0107AE36CE79A9A1B52D)
    Complete name : E:Мои рипыДом Zомби.2006.BDRip.1080p.MVO.mkv
    Format : Matroska
    Format version : Version 4/Version 2
    File size : 4.37 GiB
    Duration : 1h 34mn
    Overall bit rate : 6 648 Kbps
    Encoded date : UTC 2016-05-30 20:46:00
    Writing application : mkvmerge v6.3.0 (\'You can\'t stop me!\') built on Jun 28 2013 20:09:41
    Writing library : libebml v1.3.0 + libmatroska v1.4.0
    Video
    ID : 1
    Format : AVC
    Format/Info : Advanced Video Codec
    Format profile :High@L4.1
    Format settings, CABAC : Yes
    Format settings, ReFrames : 4 frames
    Codec ID : V_MPEG4/ISO/AVC
    Duration : 1h 34mn
    Bit rate : 6 263 Kbps
    Width : 1 920 pixels
    Height : 1 040 pixels
    Display aspect ratio : 1.85:1
    Frame rate mode : Constant
    Frame rate : 23.976 fps
    Color space : YUV
    Chroma subsampling : 4:2:0
    Bit depth : 8 bits
    Scan type : Progressive
    Bits/(Pixel*Frame) : 0.131
    Stream size : 4.03 GiB (92%)
    Writing library : x264 core 130 r2273 b3065e6
    Encoding settings : cabac=1/ref=4/deblock=1:-3:-3/analyse=0x3:0x133/me=umh/subme=11/psy=1/psy_rd=1.00:0.15/mixed_ref=1/me_range=48/chroma_me=1/trellis=2/8x8dct=1/cqm=0/deadzone=21, 11/fast_pskip=0/chroma_qp_offset=-4/threads=6/lookahead_threads=1/sliced_threads=0/nr=0/decimate=1/interlaced=0/bluray_compat=0/constrained_intra=0/bframes=8/b_pyramid=2/b_adapt=2/b_bias=0/direct=2/weightb=1/open_gop=0/weightp=2/keyint=250/keyint_min=23/scenecut=40/intra_refresh=0/rc=2pass/mbtree=0/bitrate=6263/ratetol=1.0/qcomp=0.80/qpmin=0/qpmax=69/qpstep=4/cplxblur=20.0/qblur=0.5/ip_ratio=1.40/pb_ratio=1.30/aq=2:1.00
    Language : English
    Default : Yes
    Forced : No
    Color primaries : Generic film
    Matrix coefficients : YCgCo
    Audio
    ID : 2
    Format : AC-3
    Format/Info : Audio Coding 3
    Mode extension : CM (complete main)
    Format settings, Endianness : Big
    Codec ID : A_AC3
    Duration : 1h 34mn
    Bit rate mode : Constant
    Bit rate : 384 Kbps
    Channel(s) : 6 channels
    Channel positions : Front: L C R, Side: L R, LFE
    Sampling rate : 48.0 KHz
    Bit depth : 16 bits
    Compression mode : Lossy
    Delay relative to video : 24ms
    Stream size : 259 MiB (6%)
    Title : Многоголосый
    Language : Russian
    Default : Yes
    Forced : No
    Menu
    00:00:00.000 : en:Chapter 1
    00:17:24.000 : en:Chapter 2


    Скриншоты для ознакомления




    Онлайн видео Dом Zомби



    Dом Zомби/Wicked Little Things (2006) BDRip [H.264/1080p-LQ]
    загрузка...
    Рейтинг →
     (голосов: 1, оценка 5/5, голосовать можно 1 раз )

    Другие торренты по теме:

  • Братья Грим - Zомби (2015) [MP3|320 кб / с]<Pop, Rock> скачать через торрент бесплатно


    • Комментарии (0):

      Информация

      Информация

        Посетители, находящиеся в группе Гости, не могут оставлять комментарии в данной новости.

        ↓ Меню




        ↓ Опрос

        Вы добавили сайт в закладки?
        Да
        Нет


        Top 10 за месяц (Фильмы)