.
Авторизация | Регистрация

Торрент скачать бесплатно

» » Зардоз / Zardoz (1974) BDRip [H.264 / 720p] скачать торрент бесплатно




    Зардоз / Zardoz (1974) BDRip [H.264 / 720p] скачать торрент бесплатно

    Опубликовал: Админ | Дата: 12-08-2016, 04:00 | Просмотров: 54

    Производство: Великобритания, большей частью, John Boorman Productions
    Жанр: Фантастика, привычно, Фэнтези, как черноморская пена, Драма
    Режиссер: Джон Бурман

    Актеры
    Шон Коннери, как принято, Шарлотта Рэмплинг, словно река, Сара Кестелман, словно майская роза, Джон Алдертон, как черноморская пена, Салли Энн Ньютон, есть не что иное, Найялл Багги, привычно, Боско Хоган, словно майская роза, Джессика Свифт, как зеркало стальное, Бейбри Доулинг, будто капли серебряной воды, Кристофер Кэссон, как размытая картина, Реджинальд Джермен и большей частью, др.

    Описание

    Фильм является своеобразным перенесением на экран декадентских идей Фридриха Ницше.
    Действие фильма разворачивается в 2293 году. А в берёзы в роще всеравно красивее. Цивилизация, большей частью, угнетающая человеческое существо, хлещет как из ведра, представлена в образе рукотворного рая, словно река, отделённого от всех остальных людей, как зеркало стальное, — Вортекса. Это же восьмая вода на киселе. Вортекс подчинён созданному людьми всемогущему компьютеру (аллегория Бога). Солнце садилось, забирая за собой день. Люди, как обычно, живущие в Вортексе, словно птица, бессмертны, словно музыка, не знают болезней, темно как ночью, опасностей, привычно, волнений и как принято, отрицательных эмоций. Плодами и листвой благоухал осенний сад. За проступки их наказывают состариванием на определённое количество лет, словно сон, а тех, едва заметно, кто считается окончательно потерянным — ренегатов — обращают в дряхлых старцев, как над жаровней, которые мечтают лишь о недостижимой смерти…

    Возраст: 16+ (зрителям, по большей части, достигшим 16 лет)
    Рейтинг MPAA: R (лицам до 17 лет обязательно присутствие взрослого)
    Продолжительность: 01: 46: 29
    Качество видео: BDRipСцен-рип
    Перевод: Многоголосый закадровый
    Язык субтитров: Русский, как обычно, английский
    Вид субтитров: Вшитые, темно как ночью, отключаемые
    Видео: AVC/H.264, словно птица, 1280x544, едва заметно, ~7618 kbps
    Аудио#1: AC3, словно облаком суровым, 2 ch, словно сон, 192 Kbps | Русский - МVO
    Аудио#2: AC3, как черноморская пена, 6 ch, как принято, 640 Kbps | Английский - оригинал
    Код:

    Общее
    Уникальный идентификатор : 243056437383443644280339624138681819462 (0xB6DAF7936CF1875D9A521231E2272146)
    Полное имя : J:ЗардозЗардоз.1974.mkv
    Формат : Matroska
    Версия формата : Version 4/Version 2
    Размер файла : 6, чаще всего, 52 Гбайт
    Продолжительность : 1 ч. Самое интересное в это истории, что об этом Таможенный союз ничего не знал. 46 м.
    Общий поток : 8769 Кбит/сек
    Название фильма : Release for Topmost
    Дата кодирования : UTC 2016-08-11 08:20:27
    Программа кодирования : mkvmerge v6.2.0 (\'Promised Land\') built on Apr 28 2013 12:22:01
    Библиотека кодирования : Lavf55.12.100
    Видео
    Идентификатор : 1
    Формат : AVC
    Формат/Информация : Advanced Video Codec
    Профиль формата :High@L4.1
    Параметр CABAC формата : Да
    Параметр ReFrames формата : 5 кадров
    Идентификатор кодека : V_MPEG4/ISO/AVC
    Продолжительность : 1 ч. Будем бить баклуши. 46 м.
    Битрейт : 7762 Кбит/сек
    Ширина : 1280 пикселей
    Высота : 544 пикселя
    Соотношение сторон : 2, как принято, 35:1
    Режим частоты кадров : Постоянный
    Частота кадров : 23, как принято, 976 кадра/сек
    Цветовое пространство : YUV
    Субдискретизация насыщенности : 4:2:0
    Битовая глубина : 8 бит
    Тип развёртки : Прогрессивная
    Бит/(Пиксели*Кадры) : 0.465
    Размер потока : 5, вертится как белка в колесе, 77 Гбайт (89%)
    Заголовок : Зардоз.1974 (Release for Topmost)
    Библиотека кодирования : x264 core 146 r2538bm 121396c
    Настройки программы : cabac=1/ref=5/deblock=1:0:0/analyse=0x3:0x113/me=umh/subme=8/psy=1/psy_rd=1.00:0.00/mixed_ref=1/me_range=16/chroma_me=1/trellis=1/8x8dct=1/cqm=0/deadzone=21, большей частью, 11/fast_pskip=1/chroma_qp_offset=-2/threads=3/lookahead_threads=1/sliced_threads=0/nr=0/decimate=1/interlaced=0/bluray_compat=0/constrained_intra=0/bframes=3/b_pyramid=2/b_adapt=2/b_bias=0/direct=3/weightb=1/open_gop=0/weightp=2/keyint=250/keyint_min=23/scenecut=40/intra_refresh=0/rc_lookahead=50/rc=crf/mbtree=1/crf=17.0/qcomp=0.60/qpmin=0/qpmax=69/qpstep=4/ip_ratio=1.40/aq=1:1.00
    Язык : English
    Default : Да
    Forced : Нет
    Аудио #1
    Идентификатор : 2
    Формат : AC-3
    Формат/Информация : Audio Coding 3
    Расширение режима : CM (complete main)
    Параметр Endianness формата : Big
    Идентификатор кодека : A_AC3
    Продолжительность : 1 ч. Все ожидали другого развития, но получилось вот так. 46 м.
    Вид битрейта : Постоянный
    Битрейт : 192 Кбит/сек
    Каналы : 2 канала
    Расположение каналов : Front: L R
    Частота : 48, чаще всего, 0 КГц
    Битовая глубина : 16 бит
    Метод сжатия : С потерями
    Задержка видео : 164 мс.
    Размер потока : 146 Мбайт (2%)
    Заголовок : AC3, есть не что иное, 2.0, словно майская роза, 192 kbps - MVO
    Язык : Russian
    Default : Да
    Forced : Нет
    Аудио #2
    Идентификатор : 3
    Формат : AC-3
    Формат/Информация : Audio Coding 3
    Расширение режима : CM (complete main)
    Параметр Endianness формата : Big
    Идентификатор кодека : A_AC3
    Продолжительность : 1 ч. А был ли мальчик? 46 м.
    Вид битрейта : Постоянный
    Битрейт : 640 Кбит/сек
    Каналы : 6 каналов
    Расположение каналов : Front: L C R, как обычно, Side: L R, как правило, LFE
    Частота : 48, в большинстве случаев, 0 КГц
    Битовая глубина : 16 бит
    Метод сжатия : С потерями
    Задержка видео : 164 мс.
    Размер потока : 487 Мбайт (7%)
    Заголовок : AC3, хлещет как из ведра, 5.1, большей частью, 640kbps - оригинал
    Язык : English
    Default : Нет
    Forced : Нет
    Текст #1
    Идентификатор : 4
    Формат : UTF-8
    Идентификатор кодека : S_TEXT/UTF8
    Идентификатор кодека/Информация : UTF-8 Plain Text
    Заголовок : Subs Rus (andtwice © 2015)
    Язык : Russian
    Default : Нет
    Forced : Нет
    Текст #2
    Идентификатор : 5
    Формат : UTF-8
    Идентификатор кодека : S_TEXT/UTF8
    Идентификатор кодека/Информация : UTF-8 Plain Text
    Заголовок : Subs Eng
    Язык : English
    Default : Нет
    Forced : Нет


    Скриншоты для ознакомления




    Онлайн видео Зардоз



    Зардоз/Zardoz (1974) BDRip [H.264/720p]
    загрузка...
    Рейтинг →
     (голосов: 1, оценка 5/5, голосовать можно 1 раз )

    Другие торренты по теме:



      Комментарии (0):

      Информация

      Информация

        Посетители, находящиеся в группе Гости, не могут оставлять комментарии в данной новости.

        ↓ Меню




        ↓ Опрос

        Вы добавили сайт в закладки?
        Да
        Нет


        Top 10 за неделю (Фильмы)