.
Авторизация | Регистрация
Хочешь лучшие торренты? Добавь свой email!
Добавить

Торрент скачать бесплатно

» » Трагедия в Кеттеринге / The Kettering Incident (2016) WEBRip [H.264 / 720p-LQ] (сезон 1, серии 1-3 из 8) HamsterStudio (обновляемая) торрент скачать бесплатно




    Трагедия в Кеттеринге / The Kettering Incident (2016) WEBRip [H.264 / 720p-LQ] (сезон 1, серии 1-3 из 8) HamsterStudio (обновляемая) торрент скачать бесплатно

    Опубликовал: Админ | Дата: 11-08-2016, 04:01 | Просмотров: 34

    Производство: Австралия
    Жанр: драма
    Режиссер: Роуэн Вудс, Тони Кравиц

    Актеры
    Элизабет Дебики, Меттью Ле Неввез, Генри Никсон, Элиссон Вайт, Нейл Пигот

    Описание

    Главная героиня, доктор Анна Мэйси, непонятным образом очнулась в родном городе Кеттеринг, откуда она уехала 15 лет назад после исчезновения её подруги.

    Дата мировой премьеры: 4 июля 2016
    Релиз от: HamsterStudio
    Продолжительность: ~ 00: 50: 00 серия
    Качество видео: WEBRip
    Перевод: Двуголосый закадровый, профессиональный - HamsterStudio
    Автор перевода: N-TEAM
    Озвучка: Катерина Магура и Вячеслав Айсберг
    Вид субтитров: Вшитые отключаемые
    Язык субтитров: Английский
    Реклама: присутствуют аудио, видео вставки рекламы.
    Видео: AVC/H.264, 1280x688 (1.85: 1), ~2 965 kb/s
    Аудио: AC3, 2 ch, 192 kb/s
    Код:

    General
    Unique ID : 220426944202803729680413485891785821044 (0xA5D4AF6BD2A33DDDB80FA284FDC78B74)
    Complete name : H:СериалыТрагедия в КеттерингеThe.Kettering.Incident.S01.WEBRip.720.HamsterStudioThe.Kettering.Incident.S01.E01.E02.WEBRip.720.HamsterStudio.mkv
    Format : Matroska
    Format version : Version 4/Version 2
    File size : 2.16 GiB
    Duration : 1 h 37 min
    Overall bit rate mode : Variable
    Overall bit rate : 3 158 kb/s
    Encoded date : UTC 2016-08-09 15:05:27
    Writing application : mkvmerge v7.8.0 (\'River Man\') 64bit built on Mar 27 2015 16:31:37
    Writing library : libebml v1.3.1 + libmatroska v1.4.2
    Video
    ID : 1
    Format : AVC
    Format/Info : Advanced Video Codec
    Format profile :Main@L3.2
    Format settings, CABAC : Yes
    Format settings, ReFrames : 3 frames
    Format settings, GOP : M=4, N=15
    Codec ID : V_MPEG4/ISO/AVC
    Duration : 1 h 37 min
    Bit rate mode : Variable
    Bit rate : 2 965 kb/s
    Maximum bit rate : 24.0 Mb/s
    Width : 1 280 pixels
    Height : 688 pixels
    Display aspect ratio : 1.85:1
    Frame rate mode : Constant
    Frame rate : 25.000 FPS
    Standard : NTSC
    Color space : YUV
    Chroma subsampling : 4:2:0
    Bit depth : 8 bits
    Scan type : Progressive
    Bits/(Pixel*Frame) : 0.135
    Stream size : 2.02 GiB (94%)
    Default : Yes
    Forced : Yes
    Color range : Limited
    Audio
    ID : 2
    Format : AC-3
    Format/Info : Audio Coding 3
    Mode extension : CM (complete main)
    Format settings, Endianness : Big
    Codec ID : A_AC3
    Duration : 1 h 37 min
    Bit rate mode : Constant
    Bit rate : 192 kb/s
    Channel(s) : 2 channels
    Channel positions : Front: L R
    Sampling rate : 48.0 kHz
    Frame rate : 31.250 FPS (1536 spf)
    Compression mode : Lossy
    Stream size : 134 MiB (6%)
    Language : Russian
    Default : Yes
    Forced : Yes
    Text
    ID : 3
    Format : ASS
    Codec ID : S_TEXT/ASS
    Codec ID/Info : Advanced Sub Station Alpha
    Duration : 1 h 34 min
    Bit rate : 1 b/s
    Count of elements : 6
    Compression mode : Lossless
    Stream size : 870 Bytes (0%)
    Default : Yes
    Forced : Yes


    Скриншоты для ознакомления




    Онлайн видео Трагедия в Кеттеринге



    Трагедия в Кеттеринге/The Kettering Incident (2016) WEBRip [H.264/720p-LQ] (сезон 1, серии 1-3 из 8) HamsterStudio (обновляемая)
    загрузка...
    Рейтинг →
     (голосов: 1, оценка 4/5, голосовать можно 1 раз )

    Другие торренты по теме:

  • Случай в Кеттеринге / Трагедия в Кеттеринге / The Kettering Incident (2016) WEBRip (сезон 1, серии 1-7 из 8) HamsterStudio (обновляемая)


    • Комментарии (0):

      Информация

      Информация

        Посетители, находящиеся в группе Гости, не могут оставлять комментарии в данной новости.

        ↓ Меню




        ↓ Опрос

        Вы добавили сайт в закладки?
        Да
        Нет


        Top 10 за месяц (Фильмы)