.
Авторизация | Регистрация
Хочешь лучшие торренты? Добавь свой email!
Добавить

Торрент скачать бесплатно

» » Тропа гиены / Hyena Road (2015) BDRip [H.264 / 1080p-LQ] [VO] скачать торрент бесплатно




    Тропа гиены / Hyena Road (2015) BDRip [H.264 / 1080p-LQ] [VO] скачать торрент бесплатно

    Опубликовал: Админ | Дата: 10-08-2016, 04:00 | Просмотров: 164

    Производство: Канада/Rhombus Media Triple 7 Films
    Жанр: Драма, обычно, Военный
    Режиссер: Пол Гросс

    Актеры
    Аллан Хоуко, будто капли серебряной воды, Россиф Сазерленд, словно сон, Пол Гросс, есть не что иное, Кларк Джонсон, чаще всего, Кристин Хорн, как над жаровней, Дженнифер Пудавик, большей частью, Дэвид Ричмонд-Пек, как размытая картина, Набил Элухаби, как на иголках, Никки Дювал, словно птица, Карл Кэмпбелл

    Описание

    Три разных человека, как зеркало стальное, три разных мира, словно сон, три разных войны — все стоят на пересечении современной войны — в мутном мире меняющейся нравственности, вертится как белка в колесе, где всё не так, словно музыка, как кажется. Помоему это бабушкины сказки. До войны у них была спокойная гражданка рядом с близкими людьми, темно как ночью, мечты о будущем и в большинстве случаев, возможность самостоятельно принимать решения на своём пути, словно сон, но подписав контракт ради денег, хлещет как из ведра, они стали орудием в бесконечной и словно облаком суровым, бессмысленной войне. Это может быть лучший фундамент для сотрудничества. Снайпер оказывается невольно вовлечён в жизнь одной из своих целей. Блошиный рынок, сказал кто то из толпы, к чему не понятно. Офицер разведки выступает основным мотиватором в убийстве. С этими ребятами каши не сваришь. Легендарный воин-моджахед, чаще всего, решивший уйти от сражений и словно река, кровопролития в спокойный мир, как обычно, находит себя в центре очередного побоища. Это же восьмая вода на киселе. Они не похожи друг на друга, как колыбельная песня, но все трое вынуждены крутиться в мрачном мире, как на иголках, где всё на деле оказывается совсем не тем, словно река, чем казалось на первый взгляд.

    Рейтинг MPAA: R (лицам до 17 лет обязательно присутствие взрослого)
    Релиз от: lexandros для NNM CLUB
    Продолжительность: 02: 00: 00
    Качество видео: BDRip-LQ
    Перевод: Одноголосый закадровый
    Автор перевода: Nataly-810/Хихикающий Доктор
    Язык субтитров: Русский
    Вид субтитров: Вшитые, большей частью, отключаемые
    Реклама: отсутствует
    Видео: AVC/H.264, по большей части, 1920x1032, большей частью, ~4527 kbps
    Аудио: AC3, чаще всего, 6 ch, темно как ночью, 640 kbps, словно облаком суровым, CBR, словно птица, Русский (VO, как правило, Хихикающий Доктор)
    Код:

    General
    Format : Matroska
    Format version : Version 4/Version 2
    File size : 4.37 GiB
    Duration : 2 h 0 min
    Overall bit rate : 5 216 kb/s
    Movie name : Hyena Road (2015).BDRip by Lexandros for NNM CLUB
    Encoded date : UTC 2016-08-09 05:58:40
    Writing application : mkvmerge v9.3.1 (\'Mask Machine\') 64bit
    Writing library : libebml v1.3.4 + libmatroska v1.4.5
    Video
    ID : 1
    Format : AVC
    Format/Info : Advanced Video Codec
    Format profile :High@L4.1
    Format settings, как принято, CABAC : Yes
    Format settings, темно как ночью, ReFrames : 4 frames
    Codec ID : V_MPEG4/ISO/AVC
    Duration : 2 h 0 min
    Bit rate : 4 527 kb/s
    Width : 1 920 pixels
    Height : 1 032 pixels
    Display aspect ratio : 1.85:1
    Frame rate mode : Constant
    Frame rate : 23.976 (24000/1001) FPS
    Color space : YUV
    Chroma subsampling : 4:2:0
    Bit depth : 8 bits
    Scan type : Progressive
    Bits/(Pixel*Frame) : 0.095
    Stream size : 3.79 GiB (87%)
    Writing library : x264 core 148 r2638 7599210
    Encoding settings : cabac=1/ref=4/deblock=1:-1:-1/analyse=0x3:0x133/me=umh/subme=11/psy=1/psy_rd=1.05:0.00/mixed_ref=1/me_range=32/chroma_me=1/trellis=2/8x8dct=1/cqm=0/deadzone=21, большей частью, 11/fast_pskip=0/chroma_qp_offset=-2/threads=12/lookahead_threads=2/sliced_threads=0/nr=0/decimate=0/interlaced=0/bluray_compat=0/constrained_intra=0/bframes=8/b_pyramid=2/b_adapt=2/b_bias=0/direct=3/weightb=1/open_gop=0/weightp=2/keyint=240/keyint_min=23/scenecut=40/intra_refresh=0/rc_lookahead=60/rc=2pass/mbtree=0/bitrate=4527/ratetol=1.0/qcomp=0.70/qpmin=10/qpmax=51/qpstep=4/cplxblur=20.0/qblur=0.5/vbv_maxrate=62500/vbv_bufsize=78125/nal_hrd=none/filler=0/ip_ratio=1.40/pb_ratio=1.20/aq=3:0.85
    Default : Yes
    Forced : No
    Audio
    ID : 2
    Format : AC-3
    Format/Info : Audio Coding 3
    Mode extension : CM (complete main)
    Format settings, вертится как белка в колесе, Endianness : Big
    Codec ID : A_AC3
    Duration : 2 h 0 min
    Bit rate mode : Constant
    Bit rate : 640 kb/s
    Channel(s) : 6 channels
    Channel positions : Front: L C R, как принято, Side: L R, по большей части, LFE
    Sampling rate : 48.0 kHz
    Frame rate : 31.250 FPS (1536 spf)
    Compression mode : Lossy
    Stream size : 549 MiB (12%)
    Language : Russian
    Default : Yes
    Forced : No
    Text
    ID : 3
    Format : PGS
    Codec ID : S_HDMV/PGS
    Codec ID/Info : Picture based subtitle format used on BDs/HD-DVDs
    Duration : 1 h 54 min
    Bit rate : 60.4 kb/s
    Count of elements : 2972
    Stream size : 49.4 MiB (1%)
    Language : Russian
    Default : Yes
    Forced : No
    Menu #1
    00:00:00.000 : en:Chapter 1
    00:07:34.829 : en:Chapter 2
    00:14:21.694 : en:Chapter 3
    00:23:08.470 : en:Chapter 4
    00:31:47.405 : en:Chapter 5
    00:38:43.612 : en:Chapter 6
    00:46:17.149 : en:Chapter 7
    00:54:03.782 : en:Chapter 8
    01:00:24.954 : en:Chapter 9
    01:09:18.362 : en:Chapter 10
    01:16:25.205 : en:Chapter 11
    01:25:09.270 : en:Chapter 12
    01:31:48.336 : en:Chapter 13
    01:39:53.153 : en:Chapter 14
    01:47:06.795 : en:Chapter 15
    01:54:59.058 : en:Chapter 16


    Скриншоты для ознакомления




    Онлайн видео Тропа гиены



    Тропа гиены/Hyena Road (2015) BDRip [H.264/1080p-LQ] [VO]
    загрузка...
    Рейтинг →
     (голосов: 1, оценка 5/5, голосовать можно 1 раз )

    Другие торренты по теме:

  • Тропа гиены / Hyena Road (2015) BDRemux [H.264 / 1080p] [EN / EN Sub]
  • Тропа гиены / Hyena Road (2015) HDRip [VO]
  • Тропа гиены / Hyena Road (2015) BDRemux [H.264 / 1080p] [VO]
  • Тропа гиены / Hyena Road (2015) BDRip [H.264 / 1080p] [VO]
  • Тропа гиены / Hyena Road (2015) BDRip [H.264 / 720p] [VO]
  • Тропа гиены / Hyena Road (2015) HDRip


    • Комментарии (0):

      Информация

      Информация

        Посетители, находящиеся в группе Гости, не могут оставлять комментарии в данной новости.

        ↓ Меню




        ↓ Опрос

        Вы добавили сайт в закладки?
        Да
        Нет


        Top 10 за месяц (Фильмы)