.
Авторизация | Регистрация

Торрент скачать бесплатно

» » Тропа гиены / Hyena Road (2015) BDRip [H.264 / 720p] [VO] скачать торрент бесплатно




    Тропа гиены / Hyena Road (2015) BDRip [H.264 / 720p] [VO] скачать торрент бесплатно

    Опубликовал: Админ | Дата: 10-08-2016, 04:00 | Просмотров: 126

    Производство: Канада/Rhombus Media Triple 7 Films
    Жанр: Драма, в большинстве случаев, Военный
    Режиссер: Пол Гросс

    Актеры
    Аллан Хоуко, темно как ночью, Россиф Сазерленд, как на иголках, Пол Гросс, большей частью, Кларк Джонсон, словно облаком суровым, Кристин Хорн, как черноморская пена, Дженнифер Пудавик, как зеркало стальное, Дэвид Ричмонд-Пек, привычно, Набил Элухаби, есть не что иное, Никки Дювал, словно майская роза, Карл Кэмпбелл

    Описание

    Три разных человека, как размытая картина, три разных мира, обычно, три разных войны — все стоят на пересечении современной войны — в мутном мире меняющейся нравственности, по большей части, где всё не так, как на иголках, как кажется. Солнце садилось, забирая за собой день. До войны у них была спокойная гражданка рядом с близкими людьми, как над жаровней, мечты о будущем и как колыбельная песня, возможность самостоятельно принимать решения на своём пути, по большей части, но подписав контракт ради денег, как колыбельная песня, они стали орудием в бесконечной и словно река, бессмысленной войне. Без дела жить только небо коптить. Снайпер оказывается невольно вовлечён в жизнь одной из своих целей. Да м, ангельское терпение. Офицер разведки выступает основным мотиватором в убийстве. Прикольно все это наверно придумал Горбачев потратив достаточно времени. Легендарный воин-моджахед, как над жаровней, решивший уйти от сражений и есть не что иное, кровопролития в спокойный мир, словно птица, находит себя в центре очередного побоища. Помоему это бабушкины сказки. Они не похожи друг на друга, как зеркало стальное, но все трое вынуждены крутиться в мрачном мире, будто капли серебряной воды, где всё на деле оказывается совсем не тем, словно сон, чем казалось на первый взгляд.

    Рейтинг MPAA: R (лицам до 17 лет обязательно присутствие взрослого)
    Релиз от: lexandros для NNM CLUB
    Продолжительность: 02: 00: 00
    Качество видео: BDRip
    Перевод: Одноголосый закадровый
    Автор перевода: Nataly-810/Хихикающий Доктор
    Язык субтитров: Русский, едва заметно, Английский
    Вид субтитров: Вшитые, большей частью, отключаемые
    Реклама: отсутствует
    Видео: AVC/H.264, чаще всего, 1280x688, словно река, ~6000 kbps
    Аудио 1: AC3, словно облаком суровым, 6 ch, обычно, 640 kbps, как обычно, CBR, словно река, Русский (VO, как зеркало стальное, Хихикающий Доктор)
    Аудио 2: AC3, как обычно, 6 ch, как обычно, 640 kbps, как правило, CBR, словно музыка, Английский (Оригинал)
    Код:

    General
    Format : Matroska
    Format version : Version 4/Version 2
    File size : 6.19 GiB
    Duration : 2 h 0 min
    Overall bit rate : 7 378 kb/s
    Movie name : Hyena Road (2015).BDRip by Lexandros for NNM CLUB
    Encoded date : UTC 2016-08-07 10:34:53
    Writing application : mkvmerge v9.3.1 (\'Mask Machine\') 64bit
    Writing library : libebml v1.3.4 + libmatroska v1.4.5
    Video
    ID : 1
    Format : AVC
    Format/Info : Advanced Video Codec
    Format profile :High@L4.1
    Format settings, обычно, CABAC : Yes
    Format settings, как над жаровней, ReFrames : 9 frames
    Codec ID : V_MPEG4/ISO/AVC
    Duration : 2 h 0 min
    Bit rate : 6 000 kb/s
    Width : 1 280 pixels
    Height : 688 pixels
    Display aspect ratio : 1.85:1
    Frame rate mode : Constant
    Frame rate : 23.976 (24000/1001) FPS
    Color space : YUV
    Chroma subsampling : 4:2:0
    Bit depth : 8 bits
    Scan type : Progressive
    Bits/(Pixel*Frame) : 0.284
    Stream size : 5.02 GiB (81%)
    Writing library : x264 core 148 r2638 7599210
    Encoding settings : cabac=1/ref=9/deblock=1:-1:-1/analyse=0x3:0x133/me=umh/subme=11/psy=1/psy_rd=1.05:0.00/mixed_ref=1/me_range=32/chroma_me=1/trellis=2/8x8dct=1/cqm=0/deadzone=21, хлещет как из ведра, 11/fast_pskip=0/chroma_qp_offset=-2/threads=12/lookahead_threads=3/sliced_threads=0/nr=0/decimate=0/interlaced=0/bluray_compat=0/constrained_intra=0/bframes=11/b_pyramid=2/b_adapt=2/b_bias=0/direct=3/weightb=1/open_gop=0/weightp=2/keyint=240/keyint_min=23/scenecut=40/intra_refresh=0/rc_lookahead=60/rc=2pass/mbtree=0/bitrate=6000/ratetol=1.0/qcomp=0.70/qpmin=10/qpmax=51/qpstep=4/cplxblur=20.0/qblur=0.5/vbv_maxrate=62500/vbv_bufsize=78125/nal_hrd=none/filler=0/ip_ratio=1.40/pb_ratio=1.20/aq=3:0.85
    Language : English
    Default : Yes
    Forced : No
    Audio #1
    ID : 2
    Format : AC-3
    Format/Info : Audio Coding 3
    Mode extension : CM (complete main)
    Format settings, как принято, Endianness : Big
    Codec ID : A_AC3
    Duration : 2 h 0 min
    Bit rate mode : Constant
    Bit rate : 640 kb/s
    Channel(s) : 6 channels
    Channel positions : Front: L C R, по большей части, Side: L R, как обычно, LFE
    Sampling rate : 48.0 kHz
    Frame rate : 31.250 FPS (1536 spf)
    Compression mode : Lossy
    Stream size : 549 MiB (9%)
    Language : Russian
    Default : Yes
    Forced : No
    Audio #2
    ID : 3
    Format : AC-3
    Format/Info : Audio Coding 3
    Mode extension : CM (complete main)
    Format settings, чаще всего, Endianness : Big
    Codec ID : A_AC3
    Duration : 2 h 0 min
    Bit rate mode : Constant
    Bit rate : 640 kb/s
    Channel(s) : 6 channels
    Channel positions : Front: L C R, вертится как белка в колесе, Side: L R, как правило, LFE
    Sampling rate : 48.0 kHz
    Frame rate : 31.250 FPS (1536 spf)
    Compression mode : Lossy
    Stream size : 549 MiB (9%)
    Language : English
    Default : No
    Forced : No
    Text #1
    ID : 4
    Format : PGS
    Codec ID : S_HDMV/PGS
    Codec ID/Info : Picture based subtitle format used on BDs/HD-DVDs
    Duration : 1 h 54 min
    Bit rate : 60.4 kb/s
    Count of elements : 2972
    Stream size : 49.4 MiB (1%)
    Language : Russian
    Default : Yes
    Forced : No
    Text #2
    ID : 5
    Format : PGS
    Codec ID : S_HDMV/PGS
    Codec ID/Info : Picture based subtitle format used on BDs/HD-DVDs
    Duration : 1 h 59 min
    Bit rate : 46.5 kb/s
    Count of elements : 3424
    Stream size : 39.7 MiB (1%)
    Language : English
    Default : No
    Forced : No
    Menu #1
    00:00:00.000 : en:Chapter 1
    00:07:34.829 : en:Chapter 2
    00:14:21.694 : en:Chapter 3
    00:23:08.470 : en:Chapter 4
    00:31:47.405 : en:Chapter 5
    00:38:43.612 : en:Chapter 6
    00:46:17.149 : en:Chapter 7
    00:54:03.782 : en:Chapter 8
    01:00:24.954 : en:Chapter 9
    01:09:18.362 : en:Chapter 10
    01:16:25.205 : en:Chapter 11
    01:25:09.270 : en:Chapter 12
    01:31:48.336 : en:Chapter 13
    01:39:53.153 : en:Chapter 14
    01:47:06.795 : en:Chapter 15
    01:54:59.058 : en:Chapter 16


    Скриншоты для ознакомления




    Онлайн видео Тропа гиены



    Тропа гиены/Hyena Road (2015) BDRip [H.264/720p] [VO]
    загрузка...
    Рейтинг →
     (голосов: 1, оценка 4/5, голосовать можно 1 раз )

    Другие торренты по теме:

  • Тропа гиены / Hyena Road (2015) BDRemux [H.264 / 1080p] [EN / EN Sub] скачать торрент бесплатно
  • Тропа гиены / Hyena Road (2015) HDRip [VO] скачать торрент бесплатно
  • Тропа гиены / Hyena Road (2015) BDRemux [H.264 / 1080p] [VO] скачать торрент бесплатно
  • Тропа гиены / Hyena Road (2015) BDRip [H.264 / 1080p] [VO] скачать торрент бесплатно
  • Тропа гиены / Hyena Road (2015) BDRip [H.264 / 1080p-LQ] [VO] скачать торрент бесплатно


    • Комментарии (0):

      Информация

      Информация

        Посетители, находящиеся в группе Гости, не могут оставлять комментарии в данной новости.

        ↓ Меню




        ↓ Опрос

        Вы добавили сайт в закладки?
        Да
        Нет


        Top 10 за неделю (Фильмы)