.
Авторизация | Регистрация
Хочешь лучшие торренты? Добавь свой email!
Добавить

Торрент скачать бесплатно

» » Список Шиндлера / Schindlers List (1993) BDRip [H.265 / 1080p-LQ] [20th Anniversary Edition] торрент скачать бесплатно




    Список Шиндлера / Schindlers List (1993) BDRip [H.265 / 1080p-LQ] [20th Anniversary Edition] торрент скачать бесплатно

    Опубликовал: Админ | Дата: 8-08-2016, 04:00 | Просмотров: 53

    Производство: США/Universal Pictures, Amblin Entertainment
    Жанр: Драма, Биография, История
    Режиссер: Стивен Спилберг

    Актеры
    Лиам Нисон, Бен Кингсли, Рэйф Файнс, Кэролайн Гудолл, Эмбет Дэвидц, Джонатан Сагалл, Малгоша Гебель, Шмуэль Леви, Марк Иванир, Беатриче Макола

    Описание

    Лента рассказывает реальную историю загадочного Оскара Шиндлера, члена нацистской партии, преуспевающего фабриканта, спасшего во время Второй мировой войны более тысячи ста евреев. Это триумф одного человека, не похожего на других, и драма тех, кто, благодаря ему, выжил в ужасный период человеческой истории.

    Релиз от: Libero
    Продолжительность: 03: 15: 07
    Качество видео: BDRip
    Перевод: Дублированный
    Язык субтитров: Итальянский, английский
    Вид субтитров: Вшитые (отключаемые)
    Видео: HEVC/H.265, 1920x1040, ~8035 Kbps
    Аудио: AC3, 2 ch, 192 Kbps, CBR
    Код:

    Общее
    Уникальный идентификатор : 254793115885942684953301575288895479573 (0xBFAF5E80AB7CA3048DD6F1A2CC6A9F15)
    Полное имя : E:VideoСписок Шиндлера (Schindler\'s List) [20th Anniversary Edition].mkv
    Формат : Matroska
    Версия формата : Version 4/Version 2
    Размер файла : 11, 2 Гбайт
    Продолжительность : 3 ч. 15 м.
    Общий поток : 8229 Кбит/сек
    Название фильма : Список Шиндлера/Schindler\'s List (20th Anniversary Edition)
    Дата кодирования : UTC 2016-08-05 12:52:52
    Программа кодирования : mkvmerge v9.0.1 (\'Obstacles\') 64bit
    Библиотека кодирования : libebml v1.3.3 + libmatroska v1.4.4
    Attachments : c936434dde339c15398032e75db0f8ee.jpg
    Видео
    Идентификатор : 5
    Формат : HEVC
    Формат/Информация : High Efficiency Video Coding
    Профиль формата : Main@L4@Main
    Идентификатор кодека : V_MPEGH/ISO/HEVC
    Продолжительность : 3 ч. 15 м.
    Битрейт : 8035 Кбит/сек
    Ширина : 1920 пикселей
    Высота : 1040 пикселей
    Соотношение сторон : 1, 85:1
    Режим частоты кадров : Постоянный
    Частота кадров : 23, 976 (24000/1001) кадра/сек
    Цветовое пространство : YUV
    Субдискретизация насыщенности : 4:2:0
    Битовая глубина : 8 бит
    Бит/(Пиксели*Кадры) : 0.168
    Размер потока : 11, 0 Гбайт (98%)
    Заголовок : Schindler\'s List - 20th Anniversary Edition (1993) BdRip 1080p HEVC
    Библиотека кодирования : x265 1.9:[Windows][GCC 5.2.0][64 bit] 8bit
    Настройки программы : wpp/ctu=64/min-cu-size=8/max-tu-size=32/tu-intra-depth=3/tu-inter-depth=3/me=2/subme=4/merange=57/no-rect/no-amp/max-merge=3/temporal-mvp/no-early-skip/rdpenalty=0/no-tskip/no-tskip-fast/strong-intra-smoothing/no-lossless/no-cu-lossless/no-constrained-intra/fast-intra/open-gop/no-temporal-layers/interlace=0/keyint=250/min-keyint=23/scenecut=40/rc-lookahead=40/lookahead-slices=0/bframes=8/bframe-bias=0/b-adapt=2/ref=4/limit-refs=3/limit-modes/weightp/weightb/aq-mode=3/qg-size=32/aq-strength=2.00/cbqpoffs=0/crqpoffs=0/rd=4/psy-rd=1.00/rdoq-level=0/psy-rdoq=0.00/signhide/deblock=-1:-1/sao/no-sao-non-deblock/b-pyramid/no-cutree/no-intra-refresh/rc=crf/crf=22.8/qcomp=0.60/qpmin=0/qpmax=51/qpstep=4/vbv-maxrate=12000/vbv-bufsize=12000/crf-max=0.0/ipratio=1.40/pbratio=1.30
    Default : Да
    Forced : Нет
    Цветовой диапазон : Limited
    Коэффициенты матрицы : BT.709
    Аудио
    Идентификатор : 6
    Формат : AC-3
    Формат/Информация : Audio Coding 3
    Расширение режима : CM (complete main)
    Параметр Endianness формата : Big
    Идентификатор кодека : A_AC3
    Продолжительность : 3 ч. 15 м.
    Вид битрейта : Постоянный
    Битрейт : 192 Кбит/сек
    Каналы : 2 канала
    Расположение каналов : Front: L R
    Частота : 48, 0 КГц
    Частота кадров : 31, 250 кадров/сек (1536 spf)
    Метод сжатия : С потерями
    Размер потока : 268 Мбайт (2%)
    Заголовок : Перевод: Профессиональный (дублированный)
    Язык : Russian
    Default : Да
    Forced : Нет
    Текст #1
    Идентификатор : 1
    Формат : UTF-8
    Идентификатор кодека : S_TEXT/UTF8
    Идентификатор кодека/Информация : UTF-8 Plain Text
    Продолжительность : 3 ч. 13 м.
    Битрейт : 1 бит/сек
    Count of elements : 63
    Размер потока : 2, 81 Кбайт (0%)
    Заголовок : Subs Forced
    Язык : Italian
    Default : Да
    Forced : Да
    Текст #2
    Идентификатор : 2
    Формат : UTF-8
    Идентификатор кодека : S_TEXT/UTF8
    Идентификатор кодека/Информация : UTF-8 Plain Text
    Продолжительность : 3 ч. 7 м.
    Битрейт : 1 бит/сек
    Count of elements : 39
    Размер потока : 2, 25 Кбайт (0%)
    Заголовок : Subs Forced
    Язык : English
    Default : Нет
    Forced : Нет
    Текст #3
    Идентификатор : 3
    Формат : UTF-8
    Идентификатор кодека : S_TEXT/UTF8
    Идентификатор кодека/Информация : UTF-8 Plain Text
    Продолжительность : 3 ч. 13 м.
    Битрейт : 34 бит/сек
    Count of elements : 1607
    Размер потока : 48, 6 Кбайт (0%)
    Заголовок : Subs
    Язык : Italian
    Default : Нет
    Forced : Нет
    Текст #4
    Идентификатор : 4
    Формат : UTF-8
    Идентификатор кодека : S_TEXT/UTF8
    Идентификатор кодека/Информация : UTF-8 Plain Text
    Продолжительность : 3 ч. 8 м.
    Битрейт : 58 бит/сек
    Count of elements : 2471
    Размер потока : 80, 2 Кбайт (0%)
    Заголовок : Subs SDH
    Язык : English
    Default : Нет
    Forced : Нет
    Меню
    00:00:00.000 : en:00:00:00.000
    00:03:23.161 : en:00:03:23.161
    00:10:12.153 : en:00:10:12.153
    00:14:51.307 : en:00:14:51.307
    00:17:28.714 : en:00:17:28.714
    00:21:42.384 : en:00:21:42.384
    00:23:48.010 : en:00:23:48.010
    00:30:37.669 : en:00:30:37.669
    00:34:23.728 : en:00:34:23.728
    00:41:43.751 : en:00:41:43.751
    00:44:16.737 : en:00:44:16.737
    00:50:55.761 : en:00:50:55.761
    00:55:09.431 : en:00:55:09.431
    00:56:44.860 : en:00:56:44.860
    01:13:44.754 : en:01:13:44.754
    01:17:05.704 : en:01:17:05.704
    01:26:02.115 : en:01:26:02.115
    01:29:26.319 : en:01:29:26.319
    01:32:01.182 : en:01:32:01.182
    01:38:36.869 : en:01:38:36.869
    01:43:19.777 : en:01:43:19.777
    01:49:36.612 : en:01:49:36.612
    01:55:45.981 : en:01:55:45.981
    01:58:42.824 : en:01:58:42.824
    02:02:59.789 : en:02:02:59.789
    02:06:49.310 : en:02:06:49.310
    02:10:11.637 : en:02:10:11.637
    02:13:44.725 : en:02:13:44.725
    02:18:21.376 : en:02:18:21.376
    02:26:46.506 : en:02:26:46.506
    02:34:15.621 : en:02:34:15.621
    02:38:48.018 : en:02:38:48.018
    02:41:15.416 : en:02:41:15.416
    02:46:21.763 : en:02:46:21.763
    02:48:12.332 : en:02:48:12.332
    02:50:23.171 : en:02:50:23.171
    02:55:28.393 : en:02:55:28.393
    03:01:51.359 : en:03:01:51.359
    03:05:06.721 : en:03:05:06.721
    03:08:51.278 : en:03:08:51.278
    XMP
    Xmp.video.FileName : E:VideoСписок Шиндлера (Schindler\'s List) [20th Anniversary Edition].mkv
    Xmp.video.FileSize : -9.53674e-007
    Xmp.video.MimeType : video/matroska
    Xmp.video.EBMLVersion : 1
    Xmp.video.EBMLReadVersion : 1
    Xmp.video.DocType : matroska
    Xmp.video.DocTypeVersion : 4
    Xmp.video.DocTypeReadVersion : 2
    Xmp.video.TimecodeScale : 0.001
    Xmp.video.MuxingApp : libebml v1.3.3 + libmatroska v1.4.4
    Xmp.video.WritingApp : mkvmerge v9.0.1 (\'Obstacles\') 64bit
    Xmp.video.Duration : 11706570
    Xmp.video.DateUTC : 492094372
    Xmp.video.Title : РЎРїРёСЃРѕРє РЁРёРЅРґРера/Schindler\'s List (20th Anniversary Edition)
    Xmp.video.TotalStream : 12
    Xmp.video.SubTTrackForced : Yes
    Xmp.video.SubTTrackLacing : No
    Xmp.video.SubTCodec : S_TEXT/UTF8
    Xmp.video.SubTLang : ita
    Xmp.video.TrackName : Перевод: ПрофессионаРьный (РґСѓР±Рированный)
    Xmp.video.SubTDefaultOn : No
    Xmp.video.TrackLacing : No
    Xmp.video.Codec : V_MPEGH/ISO/HEVC
    Xmp.video.FrameRate : 23.976
    Xmp.video.TrackLang : und
    Xmp.video.Width : 1920
    Xmp.video.Height : 1040
    Xmp.audio.Compressor : A_AC3
    Xmp.audio.DefaultDuration : 32000
    Xmp.audio.TrackLang : rus
    Xmp.audio.SampleRate : 48000
    Xmp.audio.ChannelType : Stereo
    Xmp.video.AttachFileName : c936434dde339c15398032e75db0f8ee.jpg
    Xmp.video.AttachFileMIME : image/jpeg
    Xmp.video.AttachFileUID : 1766344212583363487
    Xmp.video.AttachFileDesc : BD cover
    Xmp.video.AspectRatio : 1.8

    Скриншоты для ознакомления



    Все одноименные релизы в Клубе
    Время раздачи: с 9: 00 до 21: 00 нск (до появления первых 3-5 скачавших)

    Список Шиндлера/Schindlers List (1993) BDRip [H.265/1080p-LQ] [20th Anniversary Edition]
    загрузка...
    Рейтинг →
     (голосов: 1, оценка 4/5, голосовать можно 1 раз )

    Другие торренты по теме:

  • Список Шиндлера / Schindlers List (1993) BDRip [720p] скачать через торрент бесплатно
  • Список Шиндлера / Schindlers List (1993) BDRip [H.264 / 1080p] скачать через торрент бесплатно
  • Список Шиндлера / Schindlers List (1993) Blu-ray CEE [H.264 / 1080p] [20th Anniversary Edition] скачать через торрент бесплатно
  • Список Шиндлера / Schindlers List (1993) BDRip [H.264 / 720p] [hand made colored] скачать через торрент бесплатно
  • Список Шиндлера / Schindlers List (1993) BDRip [H.264 / 720p]


    • Комментарии (0):

      Информация

      Информация

        Посетители, находящиеся в группе Гости, не могут оставлять комментарии в данной новости.

        ↓ Меню




        ↓ Опрос

        Вы добавили сайт в закладки?
        Да
        Нет


        Top 10 за месяц (Фильмы)