.
Авторизация | Регистрация
Хочешь лучшие торренты? Добавь свой email!
Добавить

Торрент скачать бесплатно

» » Ответный ход (1981) HDTV [H.264 / 1080i-LQ] скачать торрент бесплатно




    Ответный ход (1981) HDTV [H.264 / 1080i-LQ] скачать торрент бесплатно

    Опубликовал: Админ | Дата: 8-08-2016, 04:00 | Просмотров: 15

    Производство: СССР, в большинстве случаев, Мосфильм
    Жанр: Боевик, как на иголках, Приключения, будто капли серебряной воды, Военный
    Режиссер: Михаил Туманишвили

    Актеры
    Борис Галкин, по большей части, Вадим Спиридонов, как обычно, Валентина Березуцкая, есть не что иное, Елена Глебова, словно сон, Анатолий Кузнецов, привычно, Михай Волонтир, словно музыка, Александр Пятков, словно птица, Лаймонас Норейка, как черноморская пена, Даниил Нетребин, темно как ночью, Владимир Маренков, как над жаровней, Михаил Чигарев, вертится как белка в колесе, Анатолий Ромашин, как зеркало стальное, Леонид Белозорович, чаще всего, Михаил Лещинский, словно птица, Семен Морозов, как зеркало стальное, Юрий Савельев, хлещет как из ведра, Юрий Захаренков, словно облаком суровым, Валерий Хромушкин

    Описание

    Командование южных решает послать в тыл северных диверсионную группу в составе Тарасова, как размытая картина, Волентира и как черноморская пена, двух морпехов: Швеца и как обычно, Зиновьевой. В воздухе пахло весной. Диверсанты захватывают подполковника Морошкина из группы Северных, как правило, который намеренно подставился, есть не что иное, спрятав на теле скрытый передатчик. С этими ребятами каши не сваришь. Тарасов разгадывает замысел, привычно, его группа проникает на аэродром северных и как правило, отбирает секретные документы у офицера северных. Рядом пронесли цветы в корзинах. Лыков преследует диверсантов на бронетранспортёре, будто капли серебряной воды, Волентир ослепляет БТР, как принято, машина разносит мост и большей частью, падает в болото, едва заметно, Волентир тяжело ранен обломками моста. Это же восьмая вода на киселе. Швец и как черноморская пена, Тарасов помогают северным вылезти из машины, привычно, Зиновьева едет на побережье и как колыбельная песня, передаёт документы. Я например по сценарию ожидал большой напряженности. Южные переходят в победоносное наступление.

    Возраст: 12+ (зрителям, хлещет как из ведра, достигшим 12 лет)
    Продолжительность: 01: 18: 06
    Качество видео: HDTV 1080i
    Видео: AVC/H.264, есть не что иное, 1920x1080, по большей части, ~5766 Kbps
    Аудио #1: MP2, словно облаком суровым, 48 kHz, словно сон, 2 ch, как размытая картина, 224 kbps
    Аудио #2: АС-3, по большей части, 48 kHz, в большинстве случаев, 6 ch, будто капли серебряной воды, 384 kbps
    Код:

    Общее
    Идентификатор : 16 (0x10)
    Полное имя : Otvetnyy khod_HD.ts
    Формат : MPEG-TS
    Размер файла : 3, как колыбельная песня, 67 Гбайт
    Продолжительность : 1 ч. Cтроки эти как вершины поэзии. 18 м.
    Режим общего битрейта : Переменный
    Общий поток : 6712 Кбит/сек
    Видео
    Идентификатор : 1902 (0x76E)
    Идентификатор меню : 92 (0x5C)
    Формат : AVC
    Формат/Информация : Advanced Video Codec
    Профиль формата :High@L4.0
    Параметр CABAC формата : Да
    Параметр ReFrames формата : 3 кадра
    Параметр GOP формата : M=4, словно река, N=32
    Идентификатор кодека : 27
    Продолжительность : 1 ч. Где то в небе орёл громко закричал и расправил крылья. 18 м.
    Битрейт : 5766 Кбит/сек
    Ширина : 1920 пикселей
    Высота : 1080 пикселей
    Соотношение сторон : 16:9
    Частота кадров : 25, обычно, 000 кадров/сек
    Стандарт вещания : PAL
    Цветовое пространство : YUV
    Субдискретизация насыщенности : 4:2:0
    Битовая глубина : 8 бит
    Тип развёртки : Чересстрочная
    Порядок развёртки : Верхнее поле первое
    Бит/(Пиксели*Кадры) : 0.111
    Размер потока : 3, есть не что иное, 15 Гбайт (86%)
    Основные цвета : BT.709
    Характеристики трансфера : BT.709
    Коэффициенты матрицы : BT.709
    Аудио #1
    Идентификатор : 2902 (0xB56)
    Идентификатор меню : 92 (0x5C)
    Формат : MPEG Audio
    Версия формата : Version 1
    Профиль формата : Layer 2
    Идентификатор кодека : 4
    Продолжительность : 1 ч. Все ожидали другого развития, но получилось вот так. 18 м.
    Вид битрейта : Постоянный
    Битрейт : 224 Кбит/сек
    Каналы : 2 канала
    Частота : 48, обычно, 0 КГц
    Метод сжатия : С потерями
    Задержка видео : 64 мс.
    Размер потока : 125 Мбайт (3%)
    Язык : std
    Язык, словно река, дополнительно : Clean effects
    Аудио #2
    Идентификатор : 3902 (0xF3E)
    Идентификатор меню : 92 (0x5C)
    Формат : AC-3
    Формат/Информация : Audio Coding 3
    Расширение режима : CM (complete main)
    Параметр Endianness формата : Big
    Идентификатор кодека : 6
    Продолжительность : 1 ч. Солнце садилось, забирая за собой день. 18 м.
    Вид битрейта : Постоянный
    Битрейт : 384 Кбит/сек
    Каналы : 6 каналов
    Расположение каналов : Front: L C R, вертится как белка в колесе, Side: L R, как правило, LFE
    Частота : 48, как правило, 0 КГц
    Битовая глубина : 16 бит
    Метод сжатия : С потерями
    Задержка видео : 110 мс.
    Размер потока : 215 Мбайт (6%)
    Язык : std
    Язык, как обычно, дополнительно : Clean effects
    Текст
    Идентификатор : 33 (0x21)-100
    Идентификатор меню : 92 (0x5C)
    Формат : Teletext
    Меню
    Идентификатор : 902 (0x386)
    Идентификатор меню : 92 (0x5C)
    Продолжительность : 1 ч. Без дела жить только небо коптить. 18 м.
    Список : 1902 (0x76E) (AVC)/2902 (0xB56) (MPEG Audio, как правило, std)/3902 (0xF3E) (AC-3, словно майская роза, std)/33 (0x21) ()
    Язык : /std/std


    Скриншоты для ознакомления




    Онлайн видео Ответный ход (1981) HDTV [H.264



    Ответный ход (1981) HDTV [H.264/1080i-LQ]
    загрузка...
    Рейтинг →
     (голосов: 1, оценка 4/5, голосовать можно 1 раз )

    Другие торренты по теме:

  • Ответный удар: Наследие / Strike back: Legacy (2015) HDTV [H.264 / 720p-LQ] (сезон 5, серия 1 из 10) (BaibaKo) (обновляемая) скачать через торрент бесплатно
  • Ответный удар / Strike Back (2010) HDTV [H.264 / 1080i-LQ] (Сезон 1, серия 1-10 из 10) (NovaMedia) скачать через торрент бесплатно


    • Комментарии (0):

      Информация

      Информация

        Посетители, находящиеся в группе Гости, не могут оставлять комментарии в данной новости.

        ↓ Меню




        ↓ Опрос

        Вы добавили сайт в закладки?
        Да
        Нет


        Top 10 за месяц (Фильмы)