.
Авторизация | Регистрация
Хочешь лучшие торренты? Добавь свой email!
Добавить

Торрент скачать бесплатно

» » Очевидец / Oyevitne / Eyewitness (2014) HDTVRip (сезон 1, серии 1-6 из 6) Den904&DeadSno торрент скачать бесплатно




    Очевидец / Oyevitne / Eyewitness (2014) HDTVRip (сезон 1, серии 1-6 из 6) Den904&DeadSno торрент скачать бесплатно

    Опубликовал: Админ | Дата: 8-08-2016, 04:00 | Просмотров: 18

    Производство: Норвегия
    Жанр: криминал
    Режиссер: Ярл Эмселл Ларсен

    Актеры
    Аксель Бёйюм, Один Воге, Ингвиль Стёэн Грутмуль, Аннеке фон дер Липпе, Тобиас Сантельман, Техилла Блад, Роберт Фоллин, Франк Хьюсос, Ингве Бервен, Ингьер Эгеберг, Пер Херстад, Ким Сёренсен

    Описание

    Хеннинг и Филипп — двое друзей, живущих по соседству. Однажды ночью на мотоцикле они вместе отправились на песчаный карьер. Хеннинг готовится к областному чемпионату по мотогонкам, и Филипп впечатлен его мастерством. Когда они заходят в домик, чтобы передохнуть и попить воды, они слышат, как подъезжает какой-то автомобиль...

    Релиз от: Den904DeadSno
    Продолжительность: ~ 00: 58: 00 серия
    Качество видео: HDTVRip
    Перевод: Двуголосый закадровый, любительский - Den904DeadSno
    Вид субтитров: Отдельным файлом
    Язык субтитров: Русский
    Видео: Xvid, 720x304 (16: 9), ~1357 Кбит/сек
    Аудио: AC3, 2 канала, 192 Кбит/сек
    Код:

    Общее
    Полное имя : H:СериалыОчевидец ØyevitneОчевидец (Øyevitne) (Норвегия)Очевидец.S01E01.avi
    Формат : AVI
    Формат/Информация : Audio Video Interleave
    Размер файла : 656 Мбайт
    Продолжительность : 58 м.
    Общий поток : 1559 Кбит/сек
    Программа кодирования : VirtualDubMod 1.5.10.3 | (build 2550/release)
    Библиотека кодирования : VirtualDubMod build 2550/release
    Видео
    Идентификатор : 0
    Формат : MPEG-4 Visual
    Профиль формата : Simple@L1
    Параметр BVOP формата : Нет
    Параметр QPel формата : Нет
    Параметр GMC формата : Без точки перехода
    Параметр матрицы формата : Default (H.263)
    Идентификатор кодека : XVID
    Идентификатор кодека/Подсказка : XviD
    Продолжительность : 58 м.
    Битрейт : 1357 Кбит/сек
    Ширина : 720 пикселей
    Высота : 304 пикселя
    Соотношение сторон : 2, 35:1
    Частота кадров : 25, 000 кадров/сек
    Цветовое пространство : YUV
    Субдискретизация насыщенности : 4:2:0
    Битовая глубина : 8 бит
    Тип развёртки : Прогрессивная
    Метод сжатия : С потерями
    Бит/(Пиксели*Кадры) : 0.248
    Размер потока : 571 Мбайт (87%)
    Библиотека кодирования : Lavc53.33.0
    Аудио
    Идентификатор : 1
    Формат : AC-3
    Формат/Информация : Audio Coding 3
    Расширение режима : CM (complete main)
    Параметр Endianness формата : Big
    Идентификатор кодека : 2000
    Продолжительность : 58 м.
    Вид битрейта : Постоянный
    Битрейт : 192 Кбит/сек
    Каналы : 2 канала
    Расположение каналов : Front: L R
    Частота : 48, 0 КГц
    Частота кадров : 31, 250 кадров/сек (1536 spf)
    Метод сжатия : С потерями
    Размер потока : 80, 8 Мбайт (12%)
    Выравнивание : Разделение по промежуткам
    Продолжительность промежутка : 40 мс. (1, 00 видеокадр)
    Время предзагрузки промежутка : 500 мс.


    Скриншоты для ознакомления




    Онлайн видео Очевидец



    Очевидец/Oyevitne/Eyewitness (2014) HDTVRip (сезон 1, серии 1-6 из 6) Den904&DeadSno
    загрузка...
    Рейтинг →
     (голосов: 1, оценка 4/5, голосовать можно 1 раз )

    Другие торренты по теме:

  • Очевидец (сезон 1, серии 1-4 из 4) / Witness (2012) HDTV [1080i]
  • Дэвид Берни | Птица - Очевидец. Обо всём на свете (1997) [PDF]


    • Комментарии (0):

      Информация

      Информация

        Посетители, находящиеся в группе Гости, не могут оставлять комментарии в данной новости.

        ↓ Меню




        ↓ Опрос

        Вы добавили сайт в закладки?
        Да
        Нет


        Top 10 за месяц (Фильмы)