.
Авторизация | Регистрация
Хочешь лучшие торренты? Добавь свой email!
Добавить

Торрент скачать бесплатно

» » Сто дней в Палермо / Cento giorni a Palermo (1984) DVDRip [H.264] торрент скачать бесплатно




    Сто дней в Палермо / Cento giorni a Palermo (1984) DVDRip [H.264] торрент скачать бесплатно

    Опубликовал: Админ | Дата: 7-08-2016, 04:05 | Просмотров: 43

    Производство: Франция, Италия/C.L.C.T. La Cécilia Ombre et Lumière
    Жанр: Драма, Криминал, Исторический
    Режиссер: Джузеппе Феррара

    Актеры
    Лино Вентура, Джулиана Де Сио, Лино Троизи, Стефано Сатта Флорес, Арнольдо Фоа, Адальберто Мария Мерли, Андреа Аурели, Аккурсио ди Лео, Анита Дзагария, Альдо Сарулло и др.

    Описание

    В конце 70-х — начале 80-х годов многочисленные убийства государственных чиновников в Сицилии потрясли всю Италию. Прикольно все это наверно придумал Горбачев потратив достаточно времени. Еще никогда с такой наглостью мафия не демонстрировала свою силу перед лицом бездействующей власти. Честного и принципиального генерала Карло Далла Кьезу назначают префектом в Палермо, где он будет бороться с сицилийской преступностью…

    Продолжительность: 01: 42: 20
    Качество видео: DVDRip
    Перевод: Дублированный
    Язык субтитров: Русский, английский
    Вид субтитров: Вшитые, отключаемые
    Видео: AVC/H.264, 710х398, ~1 398Kbps
    Аудио#1: AC3, 2 ch, 192 Kbps | Русский (DUB, к/с им. Горького)
    Аудио#2: AC3, 2 ch, 192 Kbps | Итальянский (оригинал)
    Код:

    Общее
    Уникальный идентификатор : 208781023986600903148385085783589039429 (0x9D11C339335CE62CA33940608F10AD45)
    Полное имя : H:Сто дней в ПалермоСто дней в Палермо.1984.mkv
    Формат : Matroska
    Версия формата : Version 4/Version 2
    Размер файла : 1, 30 Гбайт
    Продолжительность : 1 ч. 42 м.
    Общий поток : 1818 Кбит/сек
    Название фильма : Release for Topmost
    Дата кодирования : UTC 2016-08-06 12:48:32
    Программа кодирования : mkvmerge v6.2.0 (\'Promised Land\') built on Apr 28 2013 12:22:01
    Библиотека кодирования : libebml v1.3.0 + libmatroska v1.4.0
    Видео
    Идентификатор : 1
    Формат : AVC
    Формат/Информация : Advanced Video Codec
    Профиль формата :High@L4.1
    Параметр CABAC формата : Да
    Параметр ReFrames формата : 5 кадров
    Идентификатор кодека : V_MPEG4/ISO/AVC
    Битрейт : 1398 Кбит/сек
    Ширина : 710 пикселей
    Высота : 398 пикселей
    Соотношение сторон : 16:9
    Режим частоты кадров : Переменный
    Частота кадров в оригинале : 25, 000 кадров/сек
    Цветовое пространство : YUV
    Субдискретизация насыщенности : 4:2:0
    Битовая глубина : 8 бит
    Тип развёртки : Прогрессивная
    Заголовок : Сто дней в Палермо.1984 (Release for Topmost)
    Библиотека кодирования : x264 core 146 r2538bm 121396c
    Настройки программы : cabac=1/ref=5/deblock=1:0:0/analyse=0x3:0x113/me=umh/subme=8/psy=1/psy_rd=1.00:0.00/mixed_ref=1/me_range=16/chroma_me=1/trellis=1/8x8dct=1/cqm=0/deadzone=21, 11/fast_pskip=1/chroma_qp_offset=-2/threads=3/lookahead_threads=1/sliced_threads=0/nr=0/decimate=1/interlaced=0/bluray_compat=0/constrained_intra=0/bframes=3/b_pyramid=2/b_adapt=2/b_bias=0/direct=3/weightb=1/open_gop=0/weightp=2/keyint=250/keyint_min=25/scenecut=40/intra_refresh=0/rc_lookahead=50/rc=crf/mbtree=1/crf=17.6/qcomp=0.60/qpmin=0/qpmax=69/qpstep=4/ip_ratio=1.40/aq=1:1.00
    Язык : Italian
    Default : Да
    Forced : Нет
    Аудио #1
    Идентификатор : 2
    Формат : AC-3
    Формат/Информация : Audio Coding 3
    Расширение режима : CM (complete main)
    Параметр Endianness формата : Big
    Идентификатор кодека : A_AC3
    Продолжительность : 1 ч. 42 м.
    Вид битрейта : Постоянный
    Битрейт : 192 Кбит/сек
    Каналы : 2 канала
    Расположение каналов : Front: L R
    Частота : 48, 0 КГц
    Битовая глубина : 16 бит
    Метод сжатия : С потерями
    Задержка видео : 2 с. 500 мс.
    Размер потока : 141 Мбайт (11%)
    Заголовок : AC3, 2 ch, 192 kbps - дублированный
    Язык : Russian
    Default : Да
    Forced : Нет
    Аудио #2
    Идентификатор : 3
    Формат : AC-3
    Формат/Информация : Audio Coding 3
    Расширение режима : CM (complete main)
    Параметр Endianness формата : Big
    Идентификатор кодека : A_AC3
    Продолжительность : 1 ч. 42 м.
    Вид битрейта : Постоянный
    Битрейт : 192 Кбит/сек
    Каналы : 2 канала
    Расположение каналов : Front: L R
    Частота : 48, 0 КГц
    Битовая глубина : 16 бит
    Метод сжатия : С потерями
    Задержка видео : 2 с. 500 мс.
    Размер потока : 141 Мбайт (11%)
    Язык : Italian
    Default : Нет
    Forced : Нет
    Текст #1
    Идентификатор : 4
    Формат : UTF-8
    Идентификатор кодека : S_TEXT/UTF8
    Идентификатор кодека/Информация : UTF-8 Plain Text
    Язык : Russian
    Default : Да
    Forced : Нет
    Текст #2
    Идентификатор : 5
    Формат : UTF-8
    Идентификатор кодека : S_TEXT/UTF8
    Идентификатор кодека/Информация : UTF-8 Plain Text
    Язык : English
    Default : Нет
    Forced : Нет


    Скриншоты для ознакомления




    Онлайн видео Сто дней в Палермо



    Сто дней в Палермо/Cento giorni a Palermo (1984) DVDRip [H.264]
    загрузка...
    Рейтинг →
     (голосов: 1, оценка 3/5, голосовать можно 1 раз )

    Другие торренты по теме:

  • Birthdays / Дни рождения Full v15.8 - Виджет дней рождения и напоминаний (26.09.2014) <Ru / Multi>
  • Мои ночи прекраснее ваших дней / Mes nuits sont plus belles que vos jours (1989) BDRip [720p] скачать через торрент бесплатно
  • 28 дней спустя + 28 недель спустя / 28 Days Later + 28 Weeks Later (2002,2007) BDRip [H.264]
  • 9 дней и одно утро (2014) DVDRip [H.264]
  • 9 дней и одно утро (2014) DVDRip
  • Эрик Темпл Белл | Магия чисел. Математическая мысль от Пифагора до наших дней (2014) [FB2] скачать через торрент бесплатно
  • 20 000 дней на Земле / 20 000 Days on Earth (2014) BDRip скачать через торрент бесплатно
  • Пять дней - пять ночей (1960) SATRip [H.264]скачать через торрент бесплатно


    • Комментарии (0):

      Информация

      Информация

        Посетители, находящиеся в группе Гости, не могут оставлять комментарии в данной новости.

        ↓ Меню




        ↓ Опрос

        Вы добавили сайт в закладки?
        Да
        Нет


        Top 10 за месяц (Фильмы)