.
Авторизация | Регистрация
Хочешь лучшие торренты? Добавь свой email!
Добавить

Торрент скачать бесплатно

» » Квартира 143 / Emergo (2011) BDRip [H.264 / 1080p-LQ] торрент скачать бесплатно




    Квартира 143 / Emergo (2011) BDRip [H.264 / 1080p-LQ] торрент скачать бесплатно

    Опубликовал: Админ | Дата: 7-08-2016, 04:05 | Просмотров: 42

    Производство: Испания/Kinology, Nostromo Pictures
    Жанр: Ужасы, Триллер
    Режиссер: Карлес Торренс

    Актеры
    Франсеск Гарридо, Фиона Глэскотт, Рик Гонсалес, Кай Леннокс, Джина Мантенья, Майкл О’Киф, Дэмиэн Роман, Лаура Мартускейи, Ферми Рейксач

    Описание

    Команда парапсихологов намеревается исследовать серию аномальных явлений, возникших в недавно заселенной квартире. Телефонные звонки в отсутствие звонящего, таинственные тени, необычные световые аномалии, парящие в воздухе объекты, взрывы лампочек — всё это лишь некоторые события, с которыми им предстоит столкнуться, попутно снимая все на камеру. Белая ворона, сказал кто то из толпы, к чему не понятно. Используя инфракрасную съемку, датчики движения, цифровые фотоаппараты, их попытки связаться с потусторонним миром становятся все более и более опасными, пока они не дойдут до точки невозврата.

    Возраст: 12+ (зрителям, достигшим 12 лет)
    Рейтинг MPAA: R (лицам до 17 лет обязательно присутствие взрослого)
    Релиз от: R.G. Goldenshara
    Продолжительность: 01: 19: 56
    Качество видео: BDRip (1080p-LQ)
    Перевод: Дублированный
    Видео: AVC/H.264, 1920x1036 (1.85: 1), ~7634 kbps, 24 fps
    Аудио: AC3, 2 ch, 48 kHz, 192 kbps, CBR
    Код:

    General
    Unique ID : 232339018291754365421020141223914245399 (0xAECADE049ACE7A44AD468F3D3C540D17)
    Complete name : E:Мои рипыКвартира 143.2011.BDRip.1080p.DUB.mkv
    Format : Matroska
    Format version : Version 4/Version 2
    File size : 4.37 GiB
    Duration : 1h 19mn
    Overall bit rate : 7 823 Kbps
    Encoded date : UTC 2016-08-05 15:11:15
    Writing application : mkvmerge v6.3.0 (\'You can\'t stop me!\') built on Jun 28 2013 20:09:41
    Writing library : libebml v1.3.0 + libmatroska v1.4.0
    Video
    ID : 1
    Format : AVC
    Format/Info : Advanced Video Codec
    Format profile :High@L4.1
    Format settings, CABAC : Yes
    Format settings, ReFrames : 4 frames
    Codec ID : V_MPEG4/ISO/AVC
    Duration : 1h 19mn
    Bit rate : 7 633 Kbps
    Width : 1 920 pixels
    Height : 1 036 pixels
    Display aspect ratio : 1.85:1
    Frame rate mode : Constant
    Frame rate : 24.000 fps
    Color space : YUV
    Chroma subsampling : 4:2:0
    Bit depth : 8 bits
    Scan type : Progressive
    Bits/(Pixel*Frame) : 0.160
    Stream size : 4.17 GiB (96%)
    Writing library : x264 core 130 r2273 b3065e6
    Encoding settings : cabac=1/ref=4/deblock=1:-3:-3/analyse=0x3:0x133/me=umh/subme=11/psy=1/psy_rd=1.00:0.15/mixed_ref=1/me_range=48/chroma_me=1/trellis=2/8x8dct=1/cqm=0/deadzone=21, 11/fast_pskip=0/chroma_qp_offset=-4/threads=6/lookahead_threads=1/sliced_threads=0/nr=0/decimate=1/interlaced=0/bluray_compat=0/constrained_intra=0/bframes=8/b_pyramid=2/b_adapt=2/b_bias=0/direct=2/weightb=1/open_gop=0/weightp=2/keyint=250/keyint_min=24/scenecut=40/intra_refresh=0/rc=2pass/mbtree=0/bitrate=7633/ratetol=1.0/qcomp=0.80/qpmin=0/qpmax=69/qpstep=4/cplxblur=20.0/qblur=0.5/ip_ratio=1.40/pb_ratio=1.30/aq=2:1.00
    Language : Spanish
    Default : Yes
    Forced : No
    Color primaries : Generic film
    Matrix coefficients : YCgCo
    Audio
    ID : 2
    Format : AC-3
    Format/Info : Audio Coding 3
    Mode extension : CM (complete main)
    Format settings, Endianness : Big
    Codec ID : A_AC3
    Duration : 1h 19mn
    Bit rate mode : Constant
    Bit rate : 192 Kbps
    Channel(s) : 2 channels
    Channel positions : Front: L R
    Sampling rate : 48.0 KHz
    Bit depth : 16 bits
    Compression mode : Lossy
    Stream size : 110 MiB (2%)
    Title : Дубляж
    Language : Russian
    Default : Yes
    Forced : No
    Menu
    00:00:00.000 : en:Chapter 1
    00:15:35.720 : en:Chapter 2


    Скриншоты для ознакомления




    Онлайн видео Квартира 143



    Квартира 143/Emergo (2011) BDRip [H.264/1080p-LQ]
    загрузка...
    Рейтинг →
     (голосов: 1, оценка 4/5, голосовать можно 1 раз )

    Другие торренты по теме:

  • Журнал | Уютная квартира №10 (Октябрь 2014) [PDF]
  • Журнал | Уютная квартира №11 (Ноябрь 2014) [PDF]
  • Осторожно, мошенники! Квартира или жизнь (2015.02.24) SATRip скачать через торрент бесплатно
  • Без обмана. Строительный угар. Квартира (2015.06.29) SATRip скачать через торрент бесплатно
  • Квартира / Lappartement (1996) DVDRip скачать через торрент бесплатно
  • В.К. Логинов | Ваша квартира (1982) [PDF]
  • Осторожно, мошенники! Нехорошая квартира (2016.04.26) SATRip
  • Михаил Булгаков | Зойкина квартира (1991) [MP3]


    • Комментарии (0):

      Информация

      Информация

        Посетители, находящиеся в группе Гости, не могут оставлять комментарии в данной новости.

        ↓ Меню




        ↓ Опрос

        Вы добавили сайт в закладки?
        Да
        Нет


        Top 10 за месяц (Фильмы)