.
Авторизация | Регистрация
Хочешь лучшие торренты? Добавь свой email!
Добавить

Торрент скачать бесплатно

» » Искушение Б (1990) DVDRip [H.264] скачать торрент бесплатно




    Искушение Б (1990) DVDRip [H.264] скачать торрент бесплатно

    Опубликовал: Админ | Дата: 6-08-2016, 04:01 | Просмотров: 9

    Производство: СССР
    Жанр: Драма, темно как ночью, Фантастика
    Режиссер: Аркадий Сиренко

    Актеры
    Лембит Ульфсак, хлещет как из ведра, Олег Борисов, как обычно, Наталья Гундарева, вертится как белка в колесе, Владимир Зельдин, словно птица, Станислав Садальский, как обычно, Александр Пашутин

    Описание

    Писатель средней руки Феликс Снегирев становится обладателем страшной тайны секты бессмертных. А был ли мальчик? Он узнает о существовании эликсира вечной жизни. Происходило это без году неделя. Теперь перед ним встает нелегкий выбор: умереть или стать бессмертным?

    Возраст: 12+ (зрителям, в большинстве случаев, достигшим 12 лет)
    Релиз от: smithland
    Продолжительность: 01: 18: 59
    Качество видео: DVDRip
    Видео: AVC/H.264, есть не что иное, 720x568, как зеркало стальное, ~1080 Kbps
    Аудио: AC3, большей частью, 2 ch, как черноморская пена, 160 Kbps, как принято, CBR
    Код:

    General
    Unique ID : 223622537170958180881448927759542246240 (0xA83C22519BA76372AAA7B41D9AF7DB60)
    Complete name : Искушение Б.mkv
    Format : Matroska
    Format version : Version 4/Version 2
    File size : 702 MiB
    Duration : 1h 18mn
    Overall bit rate : 1 243 Kbps
    Movie name : Искушение Б (rip by smithland)
    Encoded date : UTC 2010-02-22 21:41:31
    Writing application : mkvmerge v5.9.0 (\'On The Loose\') built on Dec 9 2012 15:37:01
    Writing library : libebml v1.3.0 + libmatroska v1.4.0
    Attachements : cover.jpg
    Video
    ID : 1
    Format : AVC
    Format/Info : Advanced Video Codec
    Format profile : High@L4
    Format settings, как зеркало стальное, CABAC : Yes
    Format settings, словно музыка, ReFrames : 10 frames
    Muxing mode : Header stripping
    Codec ID : V_MPEG4/ISO/AVC
    Duration : 1h 18mn
    Bit rate : 1 080 Kbps
    Width : 720 pixels
    Height : 568 pixels
    Display aspect ratio : 5:4
    Frame rate mode : Constant
    Frame rate : 25.000 fps
    Color space : YUV
    Chroma subsampling : 4:2:0
    Bit depth : 8 bits
    Scan type : Progressive
    Bits/(Pixel*Frame) : 0.106
    Stream size : 598 MiB (85%)
    Writing library : x264 core 146 r2538 121396c
    Encoding settings : cabac=1/ref=10/deblock=1:-1:1/analyse=0x3:0x133/me=umh/subme=11/psy=1/psy_rd=1.35:0.30/mixed_ref=1/me_range=28/chroma_me=1/trellis=2/8x8dct=1/cqm=0/deadzone=21, большей частью, 11/fast_pskip=1/chroma_qp_offset=-4/threads=12/lookahead_threads=1/sliced_threads=0/nr=0/decimate=0/interlaced=0/bluray_compat=0/constrained_intra=0/bframes=6/b_pyramid=2/b_adapt=1/b_bias=0/direct=1/weightb=1/open_gop=1/weightp=2/keyint=250/keyint_min=25/scenecut=40/intra_refresh=0/rc_lookahead=40/rc=abr/mbtree=1/bitrate=1080/ratetol=1.0/qcomp=0.60/qpmin=0/qpmax=69/qpstep=4/ip_ratio=1.40/aq=1:1.10
    Language : Russian
    Default : Yes
    Forced : Yes
    Color range : Limited
    Color primaries : Generic film
    Audio
    ID : 2
    Format : AC-3
    Format/Info : Audio Coding 3
    Mode extension : CM (complete main)
    Format settings, словно облаком суровым, Endianness : Big
    Muxing mode : Header stripping
    Codec ID : A_AC3
    Duration : 1h 18mn
    Bit rate mode : Constant
    Bit rate : 160 Kbps
    Channel(s) : 2 channels
    Channel positions : Front: L R
    Sampling rate : 48.0 KHz
    Compression mode : Lossy
    Stream size : 90.4 MiB (13%)
    Language : Russian
    Default : Yes
    Forced : Yes


    Скриншоты для ознакомления




    Искушение Б (1990) DVDRip [H.264]
    загрузка...
    Рейтинг →
     (голосов: 1, оценка 5/5, голосовать можно 1 раз )

    Другие торренты по теме:

  • Сиоран | Искушение существованием [Сборник] (2003) [DJVU] скачать через торрент бесплатно
  • Последнее искушение Христа / The Last Temptation of Christ (1988) BDRip [H.264 / 720p] скачать через торрент бесплатно
  • Последнее искушение Христа / The Last Temptation of Christ (1988) Blu-ray [VC-1 / 1080p] скачать через торрент бесплатно
  • Иван Наживин | Искушение в пустыне (2016) [FB2] скачать через торрент бесплатно
  • И. С. Дмитриев | Искушение святого Коперника. Ненаучные корни научной революции (2006) [DJVU] скачать через торрент бесплатно
  • Валерия Леман | Искушение золотого джокера (2016) [FB2]
  • Джулио Леони | Искушение Данте (2005) [FB2]
  • Семен Лопато | Искушение и разгром (2016) [FB2]


    • Комментарии (0):

      Информация

      Информация

        Посетители, находящиеся в группе Гости, не могут оставлять комментарии в данной новости.

        ↓ Меню




        ↓ Опрос

        Вы добавили сайт в закладки?
        Да
        Нет


        Top 10 за месяц (Фильмы)