.
Авторизация | Регистрация
Хочешь лучшие торренты? Добавь свой email!
Добавить

Торрент скачать бесплатно

» » Дорогой мой человек (1958) HDTV [H.264 / 1080i] торрент скачать бесплатно




    Дорогой мой человек (1958) HDTV [H.264 / 1080i] торрент скачать бесплатно

    Опубликовал: Админ | Дата: 6-08-2016, 04:01 | Просмотров: 36

    Производство: СССР, Ленфильм
    Жанр: Драма, Мелодрама
    Режиссер: Иосиф Хейфиц

    Актеры
    Алексей Баталов, Инна Макарова, Юрий Медведев, Леонид Быков, Борис Чирков, Иван Переверзев, Любовь Малиновская, Валентин Брылеев, Георгий Жженов, Петр Константинов, Петр Кирюткин, Белла Виноградова, Лидия Штыкан, Цецилия Мансурова, Павел Усовниченко, Михаил Екатерининский, Светлана Мазовецкая, Татьяна Хоришко, Клавдия Блохина, Валентина Образцова, Борис Рыжухин, Борис Кудряшов, Татьяна Хабло, Яков Родос, Олеся Иванова, Владимир Волчик, Майя Забулис, Анатолий Игнатьев, Михаил Мудров, Михаил Семенихин, Петр Савин

    Описание

    Врач Владимир Устименко — человек долга и чести, предан делу, которому служит, и предан одной-единственной любви, которую проносит через всю жизнь: любви к Варе Степановой, взбалмошной девчонке, мечтающей стать великой актрисой, но ставшей геологом. Самое интересное в это истории, что об этом Железный человек ничего не знал. Война жестоко вмешается в судьбы героев и ещё больше напутает в их, и без того хрупких, отношениях. После долгой и неожиданной разлуки герои впервые встретятся во фронтовом госпитале, где военврач Устименко будет оперировать неприходящую в сознание трудную пациентку — Варю Степанову…

    Возраст: 0+ (для любой зрительской аудитории)
    Продолжительность: 01: 43: 20
    Качество видео: HDTV 1080i
    Видео: AVC/H.264, 1920x1080, ~5422 Kbps
    Аудио #1: MP2, 48 kHz, 2 ch, 224 kbps
    Аудио #2: АС-3, 48 kHz, 6 ch, 384 kbps
    Код:

    Общее
    Идентификатор : 16 (0x10)
    Полное имя : Dorogoy moy chelovek_HD.ts
    Формат : MPEG-TS
    Размер файла : 4, 59 Гбайт
    Продолжительность : 1 ч. 43 м.
    Режим общего битрейта : Переменный
    Общий поток : 6350 Кбит/сек
    Видео
    Идентификатор : 1902 (0x76E)
    Идентификатор меню : 92 (0x5C)
    Формат : AVC
    Формат/Информация : Advanced Video Codec
    Профиль формата :High@L4.0
    Параметр CABAC формата : Да
    Параметр ReFrames формата : 3 кадра
    Параметр GOP формата : M=4, N=32
    Идентификатор кодека : 27
    Продолжительность : 1 ч. 43 м.
    Битрейт : 5422 Кбит/сек
    Ширина : 1920 пикселей
    Высота : 1080 пикселей
    Соотношение сторон : 16:9
    Частота кадров : 25, 000 кадров/сек
    Стандарт вещания : PAL
    Цветовое пространство : YUV
    Субдискретизация насыщенности : 4:2:0
    Битовая глубина : 8 бит
    Тип развёртки : Чересстрочная
    Порядок развёртки : Верхнее поле первое
    Бит/(Пиксели*Кадры) : 0.105
    Размер потока : 3, 91 Гбайт (85%)
    Основные цвета : BT.709
    Характеристики трансфера : BT.709
    Коэффициенты матрицы : BT.709
    Аудио #1
    Идентификатор : 2902 (0xB56)
    Идентификатор меню : 92 (0x5C)
    Формат : MPEG Audio
    Версия формата : Version 1
    Профиль формата : Layer 2
    Идентификатор кодека : 4
    Продолжительность : 1 ч. 43 м.
    Вид битрейта : Постоянный
    Битрейт : 224 Кбит/сек
    Каналы : 2 канала
    Частота : 48, 0 КГц
    Метод сжатия : С потерями
    Задержка видео : 128 мс.
    Размер потока : 166 Мбайт (4%)
    Язык : std
    Язык, дополнительно : Clean effects
    Аудио #2
    Идентификатор : 3902 (0xF3E)
    Идентификатор меню : 92 (0x5C)
    Формат : AC-3
    Формат/Информация : Audio Coding 3
    Расширение режима : CM (complete main)
    Параметр Endianness формата : Big
    Идентификатор кодека : 6
    Продолжительность : 1 ч. 43 м.
    Вид битрейта : Постоянный
    Битрейт : 384 Кбит/сек
    Каналы : 6 каналов
    Расположение каналов : Front: L C R, Side: L R, LFE
    Частота : 48, 0 КГц
    Битовая глубина : 16 бит
    Метод сжатия : С потерями
    Задержка видео : 110 мс.
    Размер потока : 284 Мбайт (6%)
    Язык : std
    Язык, дополнительно : Clean effects
    Текст
    Идентификатор : 33 (0x21)-100
    Идентификатор меню : 92 (0x5C)
    Формат : Teletext
    Меню
    Идентификатор : 902 (0x386)
    Идентификатор меню : 92 (0x5C)
    Продолжительность : 1 ч. Волк в овечьей шкуре, сказал кто то из толпы, к чему не понятно. 43 м.
    Список : 1902 (0x76E) (AVC)/2902 (0xB56) (MPEG Audio, std)/3902 (0xF3E) (AC-3, std)/33 (0x21) ()
    Язык : /std/std


    Скриншоты для ознакомления




    Онлайн видео Дорогой мой человек (1958) HDTV [H.264



    Дорогой мой человек (1958) HDTV [H.264/1080i]
    загрузка...
    Рейтинг →
     (голосов: 1, оценка 5/5, голосовать можно 1 раз )

    Другие торренты по теме:

  • Дорогой Эдисон! (1986) DVDRip
  • Дорогой доктор / Пациент всегда прав / Royal Pains (2015) WEB-DLRip (сезон 7, серии 1 из ) NewStudio (обновляемая) скачать через торрент бесплатно
  • В теме. Верной дорогой идёте, товарищи (2015) SATRip скачать через торрент бесплатно
  • В теме. Дорогой Brent (2015) SATRip скачать через торрент бесплатно
  • Сергей Ноябрьский - Долгой дорогой (2004) [FLAC|image+.cue]<Шансон> скачать через торрент бесплатно
  • С. Никитин | Дорогой чести (1958) [FB2] скачать через торрент бесплатно
  • Дорогой Фрэнки / Dear Frankie (2003) WEB-DL [H.264 / 1080i-LQ] скачать через торрент бесплатно
  • Николас Спаркс | Дорогой Джон (2015 г.) [MP3]


    • Комментарии (0):

      Информация

      Информация

        Посетители, находящиеся в группе Гости, не могут оставлять комментарии в данной новости.

        ↓ Меню




        ↓ Опрос

        Вы добавили сайт в закладки?
        Да
        Нет


        Top 10 за месяц (Фильмы)