.
Авторизация | Регистрация
Хочешь лучшие торренты? Добавь свой email!
Добавить

Торрент скачать бесплатно

» » Тайный город / Город Тайн / Секретный город / Secret City (2016) HDTVRip (сезон 1, серии 1-2 из 6) NewStudio (обновляемая) торрент скачать бесплатно




    Тайный город / Город Тайн / Секретный город / Secret City (2016) HDTVRip (сезон 1, серии 1-2 из 6) NewStudio (обновляемая) торрент скачать бесплатно

    Опубликовал: Админ | Дата: 3-08-2016, 04:01 | Просмотров: 50

    Производство: Австралия/Foxtel Productions, Matchbox Pictures
    Жанр: триллер
    Режиссер: Эмма Фриман

    Актеры
    Анна Торв, Дэниэл Уилли, Джеки Уивер, Дэймон Херриман, Алан Дэйл, Алекс Димитриадес, Евгения Йуан, Мэтт Зеремс, Хув Хиггинсон, Маркус Грэхэм и др.

    Описание

    Главная героиня сериала Город Тайн — корреспондент Гарриет Данкли, затянутая в общественно-политическое столкновение Китая и Соединенных Штатов Америки, проводит расследование таинственного давнишнего дела, вследствие которого были осуществлены пробы заказного смертоубийства. Данкли выясняет, что в Канберре, австралийской столице, в действительности имеется определённый тайный город, в котором влиятельные коррупционеры-госслужащие состязаются друг с дружкой в правлении.

    Дата мировой премьеры: 5 июня 2016
    Продолжительность: ~00: 50: 00 серия
    Качество видео: HDTVRip
    Перевод: Многоголосый закадровый, профессиональный -NewStudio
    Автор перевода: Елена Прокопенко
    Видео: XviD, 720x360, ~1372 kb/s
    Аудио Rus: MPEG Layer 3, 48, 0 kHz, 2 ch, 128 kb/s — многоголосый закадровый
    Аудио Eng: MPEG Layer 3, 48, 0 kHz, 2 ch, 128 kb/s — оригинал
    Код:

    Общее
    Полное имя : D:Тайный город (сезон любимого сериала 1) Secret City (2016) HDTVRip - NewStudioSecret.City.S01E01.HDTVRip.Rus.Eng.DV.NewStudio.avi
    Формат : AVI
    Формат/Информация : Audio Video Interleave
    Размер файла : 536 Мбайт
    Продолжительность : 45 м.
    Общий поток : 1642 Кбит/сек
    Название фильма : Secret.City.S01E01.HDTVRip.Rus.Eng.DV.NewStudio/NNM-Club
    Программа кодирования : VirtualDubModRus 1.5.10.2 (build 2542/release)
    Библиотека кодирования : VirtualDubMod build 2542/release
    Видео
    Идентификатор : 0
    Формат : MPEG-4 Visual
    Профиль формата : Advanced Simple@L5
    Параметр BVOP формата : 2
    Параметр QPel формата : Да
    Параметр GMC формата : Без точки перехода
    Параметр матрицы формата : Default (MPEG)
    Режим смешивания : Сжатый битовый поток
    Идентификатор кодека : XVID
    Идентификатор кодека/Подсказка : XviD
    Продолжительность : 45 м.
    Битрейт : 1372 Кбит/сек
    Ширина : 720 пикселей
    Высота : 360 пикселей
    Соотношение сторон : 2, 000
    Частота кадров : 25, 000 кадров/сек
    Цветовое пространство : YUV
    Субдискретизация насыщенности : 4:2:0
    Битовая глубина : 8 бит
    Тип развёртки : Прогрессивная
    Метод сжатия : С потерями
    Бит/(Пиксели*Кадры) : 0.212
    Размер потока : 448 Мбайт (84%)
    Библиотека кодирования : XviD 73
    Аудио #1
    Идентификатор : 1
    Формат : MPEG Audio
    Версия формата : Version 1
    Профиль формата : Layer 3
    Режим : Joint stereo
    Расширение режима : MS Stereo
    Идентификатор кодека : 55
    Идентификатор кодека/Подсказка : MP3
    Продолжительность : 45 м.
    Вид битрейта : Постоянный
    Битрейт : 128 Кбит/сек
    Каналы : 2 канала
    Частота : 48, 0 КГц
    Метод сжатия : С потерями
    Размер потока : 41, 8 Мбайт (8%)
    Выравнивание : Соединение по промежуткам
    Продолжительность промежутка : 40 мс. (1, 00 видеокадр)
    Время предзагрузки промежутка : 504 мс.
    Аудио #2
    Идентификатор : 2
    Формат : MPEG Audio
    Версия формата : Version 1
    Профиль формата : Layer 3
    Режим : Joint stereo
    Идентификатор кодека : 55
    Идентификатор кодека/Подсказка : MP3
    Продолжительность : 45 м.
    Вид битрейта : Постоянный
    Битрейт : 128 Кбит/сек
    Каналы : 2 канала
    Частота : 48, 0 КГц
    Метод сжатия : С потерями
    Размер потока : 41, 8 Мбайт (8%)
    Выравнивание : Соединение по промежуткам
    Продолжительность промежутка : 40 мс. (1, 00 видеокадр)
    Время предзагрузки промежутка : 504 мс.
    Библиотека кодирования : LAME3.99.5


    Скриншоты для ознакомления




    Онлайн видео Тайный город



    Тайный город/Город Тайн/Секретный город/Secret City (2016) HDTVRip (сезон 1, серии 1-2 из 6) NewStudio (обновляемая)
    загрузка...
    Рейтинг →
     (голосов: 1, оценка 3/5, голосовать можно 1 раз )

    Другие торренты по теме:

  • Секретный город / Тайный город / Secret City (2016) HDTV [H.264 / 720p-LQ] (сезон 1, серии 1-2 из 6) SunshineStudio (Обновляемая)
  • Тайный город / Секретный город / Secret City (2016) HDTVRip [H.264 / 720p-LQ] (сезон 1, серии 1-4 из 6) BaibaKo (обновляемая)
  • Тайный город / Город Тайн / Secret City (2016) HDTVRip [H.264 / 720p-LQ] (сезон 1, серии 1-2 из 6) NewStudio (обновляемая)
  • Тайный город 2 (2014) SATRip [2 сезон: 1-2 серия из 8](Обновляемая)


    • Комментарии (0):

      Информация

      Информация

        Посетители, находящиеся в группе Гости, не могут оставлять комментарии в данной новости.

        ↓ Меню




        ↓ Опрос

        Вы добавили сайт в закладки?
        Да
        Нет


        Top 10 за месяц (Фильмы)