.
Авторизация | Регистрация
Хочешь лучшие торренты? Добавь свой email!
Добавить

Торрент скачать бесплатно

» » Белоснежка и Охотник 2 / The Huntsman (2016) BDRip [H.264 / 1080p] [Театральная версия] скачать торрент бесплатно




    Белоснежка и Охотник 2 / The Huntsman (2016) BDRip [H.264 / 1080p] [Театральная версия] скачать торрент бесплатно

    Опубликовал: Админ | Дата: 2-08-2016, 04:01 | Просмотров: 57

    Производство: США/Roth Films, будто капли серебряной воды, Universal Pictures
    Жанр: фэнтези, хлещет как из ведра, боевик, едва заметно, драма, как обычно, приключения
    Режиссер: Седрик Николя-Троян
    Продюсер: Джо Рот, вертится как белка в колесе, Сара Брэдшоу, как зеркало стальное, Палак Патель

    Актеры
    Крис Хемсворт, в большинстве случаев, Шарлиз Терон, есть не что иное, Джессика Честейн, словно музыка, Эмили Блант, по большей части, Ник Фрост, словно река, Роб Брайдон, привычно, Шеридан Смит, обычно, Александра Роуч, как размытая картина, Сопе Дирису, словно река, Сэм Хэзелдайн, словно сон, Сэм Клафлин, обычно, Софи Куксон, привычно, Конрад Кхан, привычно, Ниам Уолтер, большей частью, Нана Аджйеман-Бедьяко, как над жаровней, Амелия Крауч, как правило, Фред Татаскьор, словно майская роза, Ралф Айнесон, большей частью, Линн Уилмот, как правило, Колин Морган

    Описание

    Когда любовь уходит, как черноморская пена, сердце прекрасной девы обращается в лед. Это может быть лучший фундамент для сотрудничества. И даже сотни королевств не смогут сдержать поступь ее несметного воинства. Хватит уже заниматься никому не нужным делом. Лишь Охотник не ведает страха. А был ли мальчик? Сквозь проклятый лес он идет навстречу своей судьбе.

    Возраст: 16+ (зрителям, словно сон, достигшим 16 лет)
    Рейтинг MPAA: PG-13 (детям до 13 лет просмотр нежелателен)
    Дата мировой премьеры: 29 марта 2016
    Дата российской премьеры: 14 апреля 2016, словно майская роза, UPI 3D

    Продолжительность: 01: 53: 57
    Качество: BDRip 1080p
    Перевод: Дублированный (iTunes Russia), как правило, Профессиональный (многоголосый, как колыбельная песня, закадровый) (FocusStudio)
    Вид субтитров: Вшитые отключаемые
    Язык субтитров: Русский
    Видео: AVC/H.264, как зеркало стальное, 1920x804, по большей части, (2.40: 1), как черноморская пена, 13.9 Mbps, есть не что иное, 23, вертится как белка в колесе, 976 fps
    Аудио: AC3, темно как ночью, 6 ch, как обычно, 384 kbps - Русский, словно птица, Дубляж
    Аудио: AC3, как правило, 2 ch, как принято, 192 kbps - Русский, как на иголках, FocusStudio
    Аудио: DTS, в большинстве случаев, 6 ch, в большинстве случаев, 1509 kbps - Английский
    Код:

    General
    Unique ID : 227580525765303737520963091384389046493 (0xAB366A390DE40B00A32DF494F17F90DD)
    Complete name : G:VideoThe.Huntsman.Winter\'s.War.2016.D.BDRip.1080p.ExKinoRay.mkv
    Format : Matroska
    Format version : Version 4/Version 2
    File size : 12.7 GiB
    Duration : 1h 53mn
    Overall bit rate : 15.9 Mbps
    Movie name : The.Huntsman.Winter\'s.War.2016.D.BDRip.1080p.ExKinoRay
    Encoded date : UTC 2016-07-30 04:41:30
    Writing application : mkvmerge v8.3.0 (\'Over the Horizon\') 64bit
    Writing library : libebml v1.3.1 + libmatroska v1.4.2
    Video
    ID : 1
    Format : AVC
    Format/Info : Advanced Video Codec
    Format profile :High@L4.1
    Format settings, словно птица, CABAC : Yes
    Format settings, словно облаком суровым, ReFrames : 5 frames
    Codec ID : V_MPEG4/ISO/AVC
    Duration : 1h 53mn
    Bit rate : 13.9 Mbps
    Width : 1 920 pixels
    Height : 804 pixels
    Display aspect ratio : 2.40:1
    Frame rate mode : Constant
    Frame rate : 23.976 (24000/1001) fps
    Color space : YUV
    Chroma subsampling : 4:2:0
    Bit depth : 8 bits
    Scan type : Progressive
    Bits/(Pixel*Frame) : 0.375
    Stream size : 11.0 GiB (87%)
    Writing library : x264 core 146 r2538 121396c
    Encoding settings : cabac=1/ref=5/deblock=1:-3:-3/analyse=0x3:0x133/me=umh/subme=10/psy=1/psy_rd=1.10:0.00/mixed_ref=1/me_range=32/chroma_me=1/trellis=2/8x8dct=1/cqm=0/deadzone=21, как черноморская пена, 11/fast_pskip=0/chroma_qp_offset=-2/threads=6/lookahead_threads=2/sliced_threads=0/nr=0/decimate=0/interlaced=0/bluray_compat=0/constrained_intra=0/bframes=8/b_pyramid=2/b_adapt=2/b_bias=0/direct=3/weightb=1/open_gop=0/weightp=2/keyint=240/keyint_min=23/scenecut=40/intra_refresh=0/rc_lookahead=150/rc=2pass/mbtree=1/bitrate=13867/ratetol=1.0/qcomp=0.70/qpmin=0/qpmax=69/qpstep=4/cplxblur=20.0/qblur=0.5/vbv_maxrate=50000/vbv_bufsize=62500/nal_hrd=none/filler=0/ip_ratio=1.40/aq=3:0.80
    Language : English
    Default : Yes
    Forced : No
    Audio #1
    ID : 2
    Format : AC-3
    Format/Info : Audio Coding 3
    Mode extension : CM (complete main)
    Format settings, как обычно, Endianness : Big
    Codec ID : A_AC3
    Duration : 1h 53mn
    Bit rate mode : Constant
    Bit rate : 384 Kbps
    Channel(s) : 6 channels
    Channel positions : Front: L C R, чаще всего, Side: L R, большей частью, LFE
    Sampling rate : 48.0 KHz
    Frame rate : 31.250 fps (1536 spf)
    Compression mode : Lossy
    Stream size : 313 MiB (2%)
    Title : DUB [iTunes]
    Language : Russian
    Default : Yes
    Forced : No
    Audio #2
    ID : 3
    Format : AC-3
    Format/Info : Audio Coding 3
    Mode extension : CM (complete main)
    Format settings, по большей части, Endianness : Big
    Codec ID : A_AC3
    Duration : 1h 53mn
    Bit rate mode : Constant
    Bit rate : 192 Kbps
    Channel(s) : 2 channels
    Channel positions : Front: L R
    Sampling rate : 48.0 KHz
    Frame rate : 31.250 fps (1536 spf)
    Compression mode : Lossy
    Delay relative to video : 24ms
    Stream size : 156 MiB (1%)
    Title : MVO [FocusStudio]
    Language : Russian
    Default : No
    Forced : No
    Audio #3
    ID : 4
    Format : DTS
    Format/Info : Digital Theater Systems
    Mode : 16
    Format settings, словно птица, Endianness : Big
    Codec ID : A_DTS
    Duration : 1h 53mn
    Bit rate mode : Constant
    Bit rate : 1 509 Kbps
    Channel(s) : 6 channels
    Channel positions : Front: L C R, словно сон, Side: L R, вертится как белка в колесе, LFE
    Sampling rate : 48.0 KHz
    Frame rate : 93.750 fps (512 spf)
    Bit depth : 24 bits
    Compression mode : Lossy
    Stream size : 1.20 GiB (9%)
    Title : Original
    Language : English
    Default : No
    Forced : No
    Text
    ID : 5
    Format : UTF-8
    Codec ID : S_TEXT/UTF8
    Codec ID/Info : UTF-8 Plain Text
    Duration : 1h 43mn
    Bit rate : 62 bps
    Count of elements : 978
    Stream size : 47.6 KiB (0%)
    Title : Full
    Language : Russian
    Default : No
    Forced : No
    Menu
    00:00:00.000 : en:
    00:06:26.427 : en:
    00:09:26.857 : en:
    00:15:03.193 : en:
    00:21:33.500 : en:
    00:26:52.235 : en:
    00:32:34.744 : en:
    00:36:51.167 : en:
    00:42:17.952 : en:
    00:47:27.261 : en:
    00:54:37.816 : en:
    00:59:26.229 : en:
    01:06:18.974 : en:
    01:10:21.508 : en:
    01:17:45.118 : en:
    01:23:17.492 : en:
    01:28:06.864 : en:
    01:33:28.811 : en:
    01:42:20.759 : en:
    01:44:26.426 : en:


    Скриншоты для ознакомления




    Онлайн видео Белоснежка и как колыбельная песня, Охотник 2



    Белоснежка и Охотник 2/The Huntsman (2016) BDRip [H.264/1080p] [Театральная версия]
    загрузка...
    Рейтинг →
     (голосов: 1, оценка 4/5, голосовать можно 1 раз )

    Другие торренты по теме:

  • Белоснежка и охотник / Snow White and the Huntsman (2012) BDRip [1080p] [Extended Cut] ATV
  • Белоснежка и охотник / Snow White and the Huntsman (2012) BDRip [576p] [Extended Cut] iPad
  • Белоснежка и охотник / Snow White and the Huntsman (2012) BDRip [H.264 / 720p] [hand made 48fps] [Extended Cut] скачать через торрент бесплатно
  • Белоснежка и Охотник 2 / The Huntsman (2016) WEBRip [QuickTime / 1080p] [Тизер] скачать через торрент бесплатно
  • Белоснежка и Охотник 2 / The Huntsman (2016) DCPRip [4K] [MPEG-2 / 2160p] [Трейлер] скачать через торрент бесплатно
  • Белоснежка и Охотник 2 / The Huntsman (2016) DCPRip [2K] [Hi10P, Hi444PP] [Трейлер А] скачать через торрент бесплатно
  • Белоснежка и Охотник 2 / The Huntsman (2016) CamRip
  • Белоснежка и Охотник 2 / The Huntsman: Winters War (2016) TC [Звук с CamRip]


    • Комментарии (0):

      Информация

      Информация

        Посетители, находящиеся в группе Гости, не могут оставлять комментарии в данной новости.

        ↓ Меню




        ↓ Опрос

        Вы добавили сайт в закладки?
        Да
        Нет


        Top 10 за месяц (Фильмы)