.
Авторизация | Регистрация
Хочешь лучшие торренты? Добавь свой email!
Добавить

Торрент скачать бесплатно

» » Белоснежка и Охотник 2 / The Huntsman (2016) BDRip [H.264 / 720p] [Театральная версия] скачать торрент бесплатно




    Белоснежка и Охотник 2 / The Huntsman (2016) BDRip [H.264 / 720p] [Театральная версия] скачать торрент бесплатно

    Опубликовал: Админ | Дата: 2-08-2016, 04:01 | Просмотров: 57

    Производство: США/Roth Films, словно птица, Universal Pictures
    Жанр: фэнтези, словно сон, боевик, как на иголках, драма, обычно, приключения
    Режиссер: Седрик Николя-Троян
    Продюсер: Джо Рот, как обычно, Сара Брэдшоу, есть не что иное, Палак Патель

    Актеры
    Крис Хемсворт, словно облаком суровым, Шарлиз Терон, как принято, Джессика Честейн, будто капли серебряной воды, Эмили Блант, словно майская роза, Ник Фрост, словно сон, Роб Брайдон, словно облаком суровым, Шеридан Смит, как зеркало стальное, Александра Роуч, по большей части, Сопе Дирису, словно птица, Сэм Хэзелдайн, словно сон, Сэм Клафлин, привычно, Софи Куксон, как принято, Конрад Кхан, хлещет как из ведра, Ниам Уолтер, как правило, Нана Аджйеман-Бедьяко, как зеркало стальное, Амелия Крауч, как правило, Фред Татаскьор, большей частью, Ралф Айнесон, чаще всего, Линн Уилмот, по большей части, Колин Морган

    Описание

    Когда любовь уходит, как размытая картина, сердце прекрасной девы обращается в лед. Cтроки эти как вершины поэзии. И даже сотни королевств не смогут сдержать поступь ее несметного воинства. Помоему это бабушкины сказки. Лишь Охотник не ведает страха. Большая шишка, сказал кто то из толпы, к чему не понятно. Сквозь проклятый лес он идет навстречу своей судьбе.

    Возраст: 16+ (зрителям, как колыбельная песня, достигшим 16 лет)
    Рейтинг MPAA: PG-13 (детям до 13 лет просмотр нежелателен)
    Дата мировой премьеры: 29 марта 2016
    Дата российской премьеры: 14 апреля 2016, вертится как белка в колесе, UPI 3D

    Продолжительность: 01: 53: 57
    Качество: BDRip 720p
    Перевод: Дублированный (iTunes Russia), как обычно, Профессиональный (многоголосый, как на иголках, закадровый) (FocusStudio)
    Вид субтитров: Вшитые отключаемые
    Язык субтитров: Русский
    Видео: AVC/H.264, словно река, 1280x534, чаще всего, (2.40: 1), словно сон, 4 422 Kbps, словно майская роза, 23, как обычно, 976 fps
    Аудио: AC3, как колыбельная песня, 6 ch, как черноморская пена, 384 kbps - Русский, в большинстве случаев, Дубляж
    Аудио: AC3, как над жаровней, 2 ch, вертится как белка в колесе, 192 kbps - Русский, как над жаровней, FocusStudio
    Аудио: DTS, как черноморская пена, 6 ch, как обычно, 1509 kbps - Английский
    Код:

    General
    Unique ID : 213149697114417971649304931683678015094 (0xA05B2370365492BDB866A2D3C4C7CE76)
    Complete name : G:VideoThe.Huntsman.Winter\'s.War.2016.D.BDRip.720p.ExKinoRay.mkv
    Format : Matroska
    Format version : Version 4/Version 2
    File size : 5.18 GiB
    Duration : 1h 53mn
    Overall bit rate : 6 508 Kbps
    Movie name : The.Huntsman.Winter\'s.War.2016.D.BDRip.720p.ExKinoRay
    Encoded date : UTC 2016-07-30 06:21:42
    Writing application : mkvmerge v8.3.0 (\'Over the Horizon\') 64bit
    Writing library : libebml v1.3.1 + libmatroska v1.4.2
    Video
    ID : 1
    Format : AVC
    Format/Info : Advanced Video Codec
    Format profile :High@L4.1
    Format settings, словно музыка, CABAC : Yes
    Format settings, как на иголках, ReFrames : 12 frames
    Codec ID : V_MPEG4/ISO/AVC
    Duration : 1h 53mn
    Bit rate : 4 422 Kbps
    Width : 1 280 pixels
    Height : 534 pixels
    Display aspect ratio : 2.40:1
    Frame rate mode : Constant
    Frame rate : 23.976 (24000/1001) fps
    Color space : YUV
    Chroma subsampling : 4:2:0
    Bit depth : 8 bits
    Scan type : Progressive
    Bits/(Pixel*Frame) : 0.270
    Stream size : 3.52 GiB (68%)
    Writing library : x264 core 148 r2694 3b70645
    Encoding settings : cabac=1/ref=12/deblock=1:-3:-3/analyse=0x3:0x113/me=umh/subme=11/psy=1/psy_rd=1.00:0.00/mixed_ref=1/me_range=48/chroma_me=1/trellis=2/8x8dct=1/cqm=0/deadzone=21, обычно, 11/fast_pskip=0/chroma_qp_offset=-2/threads=8/lookahead_threads=1/sliced_threads=0/nr=0/decimate=1/interlaced=0/bluray_compat=0/constrained_intra=0/bframes=10/b_pyramid=2/b_adapt=1/b_bias=0/direct=1/weightb=1/open_gop=0/weightp=2/keyint=240/keyint_min=24/scenecut=40/intra_refresh=0/rc_lookahead=60/rc=2pass/mbtree=1/bitrate=4422/ratetol=1.0/qcomp=0.60/qpmin=0/qpmax=69/qpstep=4/cplxblur=20.0/qblur=0.5/vbv_maxrate=50000/vbv_bufsize=25000/nal_hrd=none/filler=0/ip_ratio=1.40/aq=1:1.00
    Language : English
    Default : Yes
    Forced : No
    Audio #1
    ID : 2
    Format : AC-3
    Format/Info : Audio Coding 3
    Mode extension : CM (complete main)
    Format settings, темно как ночью, Endianness : Big
    Codec ID : A_AC3
    Duration : 1h 53mn
    Bit rate mode : Constant
    Bit rate : 384 Kbps
    Channel(s) : 6 channels
    Channel positions : Front: L C R, словно река, Side: L R, вертится как белка в колесе, LFE
    Sampling rate : 48.0 KHz
    Frame rate : 31.250 fps (1536 spf)
    Compression mode : Lossy
    Stream size : 313 MiB (6%)
    Title : DUB [iTunes]
    Language : Russian
    Default : Yes
    Forced : No
    Audio #2
    ID : 3
    Format : AC-3
    Format/Info : Audio Coding 3
    Mode extension : CM (complete main)
    Format settings, чаще всего, Endianness : Big
    Codec ID : A_AC3
    Duration : 1h 53mn
    Bit rate mode : Constant
    Bit rate : 192 Kbps
    Channel(s) : 2 channels
    Channel positions : Front: L R
    Sampling rate : 48.0 KHz
    Frame rate : 31.250 fps (1536 spf)
    Compression mode : Lossy
    Delay relative to video : 24ms
    Stream size : 156 MiB (3%)
    Title : MVO [FocusStudio]
    Language : Russian
    Default : No
    Forced : No
    Audio #3
    ID : 4
    Format : DTS
    Format/Info : Digital Theater Systems
    Mode : 16
    Format settings, как черноморская пена, Endianness : Big
    Codec ID : A_DTS
    Duration : 1h 53mn
    Bit rate mode : Constant
    Bit rate : 1 509 Kbps
    Channel(s) : 6 channels
    Channel positions : Front: L C R, словно сон, Side: L R, как размытая картина, LFE
    Sampling rate : 48.0 KHz
    Frame rate : 93.750 fps (512 spf)
    Bit depth : 24 bits
    Compression mode : Lossy
    Stream size : 1.20 GiB (23%)
    Title : Original
    Language : English
    Default : No
    Forced : No
    Text
    ID : 5
    Format : UTF-8
    Codec ID : S_TEXT/UTF8
    Codec ID/Info : UTF-8 Plain Text
    Duration : 1h 43mn
    Bit rate : 62 bps
    Count of elements : 978
    Stream size : 47.6 KiB (0%)
    Title : Full
    Language : Russian
    Default : No
    Forced : No
    Menu
    00:00:00.000 : en:
    00:06:26.427 : en:
    00:09:26.857 : en:
    00:15:03.193 : en:
    00:21:33.500 : en:
    00:26:52.235 : en:
    00:32:34.744 : en:
    00:36:51.167 : en:
    00:42:17.952 : en:
    00:47:27.261 : en:
    00:54:37.816 : en:
    00:59:26.229 : en:
    01:06:18.974 : en:
    01:10:21.508 : en:
    01:17:45.118 : en:
    01:23:17.492 : en:
    01:28:06.864 : en:
    01:33:28.811 : en:
    01:42:20.759 : en:
    01:44:26.426 : en:


    Скриншоты для ознакомления




    Онлайн видео Белоснежка и словно музыка, Охотник 2



    Белоснежка и Охотник 2/The Huntsman (2016) BDRip [H.264/720p] [Театральная версия]
    загрузка...
    Рейтинг →
     (голосов: 1, оценка 5/5, голосовать можно 1 раз )

    Другие торренты по теме:

  • Белоснежка и охотник / Snow White and the Huntsman (2012) BDRip [1080p] [Extended Cut] ATV
  • Белоснежка и охотник / Snow White and the Huntsman (2012) BDRip [576p] [Extended Cut] iPad
  • Белоснежка и охотник / Snow White and the Huntsman (2012) BDRip [H.264 / 720p] [hand made 48fps] [Extended Cut] скачать через торрент бесплатно
  • Белоснежка и Охотник 2 / The Huntsman (2016) WEBRip [QuickTime / 1080p] [Тизер] скачать через торрент бесплатно
  • Белоснежка и Охотник 2 / The Huntsman (2016) DCPRip [4K] [MPEG-2 / 2160p] [Трейлер] скачать через торрент бесплатно
  • Белоснежка и Охотник 2 / The Huntsman (2016) DCPRip [2K] [Hi10P, Hi444PP] [Трейлер А] скачать через торрент бесплатно
  • Белоснежка и Охотник 2 / The Huntsman (2016) CamRip
  • Белоснежка и Охотник 2 / The Huntsman: Winters War (2016) TC [Звук с CamRip]


    • Комментарии (0):

      Информация

      Информация

        Посетители, находящиеся в группе Гости, не могут оставлять комментарии в данной новости.

        ↓ Меню




        ↓ Опрос

        Вы добавили сайт в закладки?
        Да
        Нет


        Top 10 за месяц (Фильмы)