.
Авторизация | Регистрация
Хочешь лучшие торренты? Добавь свой email!
Добавить

Торрент скачать бесплатно

» » Рэй Донован / Ray Donovan (2016) WEB-DLRip / HDTVRip [H.264 / 720p-LQ] (сезон 4, серии 1-6 из 12) IdeaFilm (обновляемая) скачать торрент бесплатно




    Рэй Донован / Ray Donovan (2016) WEB-DLRip / HDTVRip [H.264 / 720p-LQ] (сезон 4, серии 1-6 из 12) IdeaFilm (обновляемая) скачать торрент бесплатно

    Опубликовал: Админ | Дата: 2-08-2016, 04:01 | Просмотров: 119

    Производство: США
    Жанр: драма, как правило, криминал
    Режиссер: Майкл Аппендаль, как размытая картина, Дэниэл Эттиэс, как зеркало стальное, Джон Дал

    Актеры
    Лив Шрайбер, привычно, Паула Малкомсон, как колыбельная песня, Эдди Марсан, чаще всего, Дэш Майок, едва заметно, Джон Войт, в большинстве случаев, Стивен Бауэр, словно птица, Кэтрин Менниг, есть не что иное, Пуч Холл, словно река, Кэррис Дорси, как над жаровней, Девон Бэгби и словно майская роза, др.

    Описание

    Рэй Донован решает любые проблемы богатых и будто капли серебряной воды, знаменитых людей Лос-Анджелеса, как колыбельная песня, но при этом не может разобраться со своей собственной семьей...

    Возраст: 18+ (зрителям, есть не что иное, достигшим 18 лет. Как для меня не ожиданный поворот событий. запрещено для детей)
    Релиз от: IdeaFilm
    Продолжительность: ~00: 58: 00 серия
    Качество видео: WEB-DLRip/HDTVRip
    Перевод: Многоголосый закадровый, большей частью, профессиональный - IdeaFilm
    Реклама: присутствуют аудио вставки рекламы.
    Видео: AVC/H.264, по большей части, 1280x720 (16: 9), будто капли серебряной воды, ~2882 Кбит/сек
    Аудио #1 Rus: AC3, словно облаком суровым, 6 каналов, словно облаком суровым, 384 Кбит/сек - многоголосый закадровый
    Аудио #2 Eng: AC3, темно как ночью, 6 каналов, большей частью, 384 Кбит/сек - оригинал
    Код:

    Общее
    Уникальный идентификатор : 228678812283645008364179832615509371086 (0xAC09EFEDCE9C4EB5A22B9A3AB2A728CE)
    Полное имя : H:СериалыРэй Донован (2016) 4 сезон любимого сериалаRay.Donovan.S04.WEB-DL.720pRay.Donovan.S04E01.WEB-DL.720p-IDEAFILM.mkv
    Формат : Matroska
    Версия формата : Version 4/Version 2
    Размер файла : 1, словно музыка, 50 Гбайт
    Продолжительность : 58 м.
    Общий поток : 3651 Кбит/сек
    Дата кодирования : UTC 2016-07-23 17:01:38
    Программа кодирования : mkvmerge v8.6.1 (\'Flying\') 64bit
    Библиотека кодирования : libebml v1.3.3 + libmatroska v1.4.4
    Видео
    Идентификатор : 1
    Формат : AVC
    Формат/Информация : Advanced Video Codec
    Профиль формата :High@L4.1
    Параметр CABAC формата : Да
    Параметр ReFrames формата : 9 кадров
    Идентификатор кодека : V_MPEG4/ISO/AVC
    Продолжительность : 58 м.
    Битрейт : 2882 Кбит/сек
    Ширина : 1280 пикселей
    Высота : 720 пикселей
    Соотношение сторон : 16:9
    Режим частоты кадров : Постоянный
    Частота кадров : 23, как на иголках, 976 (24000/1001) кадра/сек
    Цветовое пространство : YUV
    Субдискретизация насыщенности : 4:2:0
    Битовая глубина : 8 бит
    Тип развёртки : Прогрессивная
    Бит/(Пиксели*Кадры) : 0.130
    Размер потока : 1, словно майская роза, 18 Гбайт (79%)
    Библиотека кодирования : x264 core 144 r2525 40bb568
    Настройки программы : cabac=1/ref=9/deblock=1:-3:-3/analyse=0x3:0x133/me=umh/subme=10/psy=1/psy_rd=1.00:0.00/mixed_ref=1/me_range=48/chroma_me=1/trellis=2/8x8dct=1/cqm=0/deadzone=21, словно река, 11/fast_pskip=1/chroma_qp_offset=-2/threads=12/lookahead_threads=2/sliced_threads=0/nr=0/decimate=1/interlaced=0/bluray_compat=0/constrained_intra=0/bframes=8/b_pyramid=2/b_adapt=2/b_bias=0/direct=3/weightb=1/open_gop=0/weightp=2/keyint=250/keyint_min=23/scenecut=40/intra_refresh=0/rc=crf/mbtree=0/crf=17.0/qcomp=0.60/qpmin=0/qpmax=69/qpstep=4/ip_ratio=1.30/pb_ratio=1.20/aq=3:0.80
    Default : Да
    Forced : Нет
    Аудио #1
    Идентификатор : 2
    Формат : AC-3
    Формат/Информация : Audio Coding 3
    Расширение режима : CM (complete main)
    Параметр Endianness формата : Big
    Идентификатор кодека : A_AC3
    Продолжительность : 58 м.
    Вид битрейта : Постоянный
    Битрейт : 384 Кбит/сек
    Каналы : 6 каналов
    Расположение каналов : Front: L C R, словно птица, Side: L R, как зеркало стальное, LFE
    Частота : 48, как обычно, 0 КГц
    Частота кадров : 31, как зеркало стальное, 250 кадров/сек (1536 spf)
    Метод сжатия : С потерями
    Размер потока : 161 Мбайт (11%)
    Заголовок : IDEAFILM
    Язык : Russian
    Default : Да
    Forced : Нет
    Аудио #2
    Идентификатор : 3
    Формат : AC-3
    Формат/Информация : Audio Coding 3
    Расширение режима : CM (complete main)
    Параметр Endianness формата : Big
    Идентификатор кодека : A_AC3
    Продолжительность : 58 м.
    Вид битрейта : Постоянный
    Битрейт : 384 Кбит/сек
    Каналы : 6 каналов
    Расположение каналов : Front: L C R, темно как ночью, Side: L R, будто капли серебряной воды, LFE
    Частота : 48, есть не что иное, 0 КГц
    Частота кадров : 31, как черноморская пена, 250 кадров/сек (1536 spf)
    Метод сжатия : С потерями
    Размер потока : 161 Мбайт (11%)
    Язык : English
    Default : Нет
    Forced : Нет


    Скриншоты для ознакомления




    Онлайн видео Рэй Донован



    Рэй Донован/Ray Donovan (2016) WEB-DLRip/HDTVRip [H.264/720p-LQ] (сезон 4, серии 1-6 из 12) IdeaFilm (обновляемая)
    загрузка...
    Рейтинг →
     (голосов: 1, оценка 5/5, голосовать можно 1 раз )

    Другие торренты по теме:

  • Рэй Донован / Ray Donovan (2014) HDTVRip (Сезон 2, серии 01-11 из 12) NewStudio (Обновляемая)
  • Рэй Донован / Ray Donovan (2014) HDTVRip (Сезон 2, серии 1-11 из 12) NovaMedia (обновляемая)
  • Рэй Донован / Ray Donovan (2014) HDTV [H.264 / 1080i-LQ] (Сезон 2, серии 1-11 из 12) NovaMedia (обновляемая)
  • Рэй Донован / Ray Donovan (2014) HDTV [H.264 / 720p-LQ] (Сезон 2, Серия 1-11 из 12) NewStudio (обновляемая)
  • Рэй Донован / Ray Donovan (2015) WEB-DLRip (сезон 3, серии 1 из 12) NewStudio (обновляемая) скачать через торрент бесплатно
  • Рэй Донован / Ray Donovan (2015) HDTVRip [H.264] (сезон 3, серии 1 из 12) NewStudio (обновляемая) скачать через торрент бесплатно
  • Рэй Донован / Ray Donovan (2015) HDTVRip (сезон 3, серии 1 из 12) NewStudio (обновляемая) скачать через торрент бесплатно
  • Рэй Донован / Ray Donovan (2015) HDTVRip [H.264 / 720p-LQ] (сезон 3, серия 1 из 12) NewStudio (обновляемая) скачать через торрент бесплатно


    • Комментарии (0):

      Информация

      Информация

        Посетители, находящиеся в группе Гости, не могут оставлять комментарии в данной новости.

        ↓ Меню




        ↓ Опрос

        Вы добавили сайт в закладки?
        Да
        Нет


        Top 10 за месяц (Фильмы)