.
Авторизация | Регистрация
Хочешь лучшие торренты? Добавь свой email!
Добавить

Торрент скачать бесплатно

» » Таллула / Tallulah (2016) WEBRip [H.264 / 1080p-LQ] [EN / EN, FR, GER, IT, SP Sub] торрент скачать бесплатно




    Таллула / Tallulah (2016) WEBRip [H.264 / 1080p-LQ] [EN / EN, FR, GER, IT, SP Sub] торрент скачать бесплатно

    Опубликовал: Админ | Дата: 1-08-2016, 04:01 | Просмотров: 135

    Производство: США, Maiden Voyage, Ocean Blue Entertainment, Route One Entertainment
    Жанр: Драма
    Режиссер: Сиан Хедер

    Актеры
    Эллен Пейдж, Закари Куинто, Эллисон Дженни, Узо Адуба, Дэвид Зайас, Тэмми Бланчард, Джон Бенжамин Хикки, Эван Йоникит, Фредрик Лене, Мэдди Кормэн ...

    Описание

    Девушка без определенных занятий случайно становится сиделкой годовалого ребенка. Видя, как относится мать к девочке, она забирает ребенка к себе, по сути, спасая его от гибели. О таком странном сюжете не догадывалась даже ВиаГра. Приют им обеспечивает мать бывшего бойфренда главной героини. Через какое-то время девушка решает вернуть девочку обратно. Сложные судьбы трех женщин сближают их, вместе они смогут преодолеть трудности жизни.

    Премьера (мир): 23 января 2016, ...
    Продолжительность: 01: 51: 30
    Качество видео: WEBRip 1080p
    Перевод: Отсутствует
    Язык озвучки: Английский
    Язык субтитров: Английский, французский, немецкий, итальянский, испанский
    Вид субтитров: Вшитые отключаемые
    Видео: AVC, 1920x1038 (1.850), 23.976 fps, 7 881 Kbps (0.154 bit/pixel)
    Аудио: AC-3, 48.0 KHz, 6 ch, 384 Kbps, CBR (English)
    Код:

    General
    Unique ID : 94102826347381094434638616946469730655 (0x46CB8B8C6B85E2B31A5B81D9CD27795F)
    Complete name : E:VideoTallulah.2016.1080p.WEBRip.X264.mkv
    Format : Matroska
    Format version : Version 4/Version 2
    File size : 6.14 GiB
    Duration : 1 h 51 min
    Overall bit rate : 7 881 kb/s
    Encoded date : UTC 2016-07-31 00:07:20
    Writing application : mkvmerge v9.3.1 (\'Mask Machine\') 64bit
    Writing library : libebml v1.3.4 + libmatroska v1.4.5
    Video
    ID : 1
    Format : AVC
    Format/Info : Advanced Video Codec
    Format profile :High@L4.1
    Format settings, CABAC : Yes
    Format settings, ReFrames : 4 frames
    Codec ID : V_MPEG4/ISO/AVC
    Duration : 1 h 51 min
    Bit rate : 7 340 kb/s
    Width : 1 920 pixels
    Height : 1 038 pixels
    Display aspect ratio : 1.85:1
    Frame rate mode : Constant
    Frame rate : 23.976 (24000/1001) FPS
    Color space : YUV
    Chroma subsampling : 4:2:0
    Bit depth : 8 bits
    Scan type : Progressive
    Bits/(Pixel*Frame) : 0.154
    Stream size : 5.72 GiB (93%)
    Writing library : x264 core 148 r2705+3 3f5ed56/tmod 418b0d4 X86_64
    Encoding settings : cabac=1/ref=4/deblock=1:-3:-3/analyse=0x3:0x133/me=umh/subme=11/psy=1/fade_compensate=0.00/psy_rd=1.05:0.00/mixed_ref=1/me_range=48/chroma_me=1/trellis=2/8x8dct=1/cqm=0/deadzone=21, 11/fast_pskip=0/chroma_qp_offset=-2/threads=12/lookahead_threads=3/sliced_threads=0/nr=0/decimate=0/interlaced=0/bluray_compat=0/constrained_intra=0/fgo=0/bframes=10/b_pyramid=2/b_adapt=2/b_bias=0/direct=3/weightb=1/open_gop=0/weightp=2/keyint=250/keyint_min=23/scenecut=40/intra_refresh=0/rc=crf/mbtree=0/crf=17.0000/qcomp=0.60/qpmin=0:0:0/qpmax=69:69:69/qpstep=4/ip_ratio=1.40/pb_ratio=1.30/aq=3:0.70/aq-sensitivity=10.00/aq-factor=1.00:1.00:1.00/aq2=0/aq3=0
    Language : English
    Default : Yes
    Forced : No
    Audio
    ID : 2
    Format : AC-3
    Format/Info : Audio Coding 3
    Mode extension : CM (complete main)
    Format settings, Endianness : Big
    Codec ID : A_AC3
    Duration : 1 h 51 min
    Bit rate mode : Constant
    Bit rate : 384 kb/s
    Channel(s) : 6 channels
    Channel positions : Front: L C R, Side: L R, LFE
    Sampling rate : 48.0 kHz
    Frame rate : 31.250 FPS (1536 spf)
    Compression mode : Lossy
    Stream size : 306 MiB (5%)
    Language : English
    Default : Yes
    Forced : No
    Text #1
    ID : 3
    Format : UTF-8
    Codec ID : S_TEXT/UTF8
    Codec ID/Info : UTF-8 Plain Text
    Title : English
    Language : English
    Default : No
    Forced : No
    Text #2
    ID : 4
    Format : UTF-8
    Codec ID : S_TEXT/UTF8
    Codec ID/Info : UTF-8 Plain Text
    Title : English (SDH)
    Language : English
    Default : No
    Forced : No
    Text #3
    ID : 5
    Format : UTF-8
    Codec ID : S_TEXT/UTF8
    Codec ID/Info : UTF-8 Plain Text
    Title : French
    Language : French
    Default : No
    Forced : No
    Text #4
    ID : 6
    Format : UTF-8
    Codec ID : S_TEXT/UTF8
    Codec ID/Info : UTF-8 Plain Text
    Title : German
    Language : German
    Default : No
    Forced : No
    Text #5
    ID : 7
    Format : UTF-8
    Codec ID : S_TEXT/UTF8
    Codec ID/Info : UTF-8 Plain Text
    Title : Italian
    Language : Italian
    Default : No
    Forced : No
    Text #6
    ID : 8
    Format : UTF-8
    Codec ID : S_TEXT/UTF8
    Codec ID/Info : UTF-8 Plain Text
    Title : Spanish
    Language : Spanish
    Default : No
    Forced : No


    Скриншоты для ознакомления




    Онлайн видео Таллула



    Таллула/Tallulah (2016) WEBRip [H.264/1080p-LQ] [EN/EN, FR, GER, IT, SP Sub]
    загрузка...
    Рейтинг →
     (голосов: 1, оценка 3/5, голосовать можно 1 раз )

    Другие торренты по теме:

  • Таллула / Tallulah (2016) WEB-DLRip


    • Комментарии (0):

      Информация

      Информация

        Посетители, находящиеся в группе Гости, не могут оставлять комментарии в данной новости.

        ↓ Меню




        ↓ Опрос

        Вы добавили сайт в закладки?
        Да
        Нет


        Top 10 за месяц (Фильмы)