.
Авторизация | Регистрация
Хочешь лучшие торренты? Добавь свой email!
Добавить

Торрент скачать бесплатно

» » Всевидящее око / Eye in the Sky (2015) BDRip [H.264 / 1080p-LQ] торрент скачать бесплатно




    Всевидящее око / Eye in the Sky (2015) BDRip [H.264 / 1080p-LQ] торрент скачать бесплатно

    Опубликовал: Админ | Дата: 1-08-2016, 04:01 | Просмотров: 58

    Производство: Великобритания, Entertainment One, Raindog Films
    Жанр: Триллер, Драма, Военный
    Режиссер: Гэвин Худ

    Актеры
    Хелен Миррен, Файза Хассан, Аиша Такоу, Армаан Хаггио, Боб Чаппель, Алекс Гафлавент, Аарон Пол, Бабу Сизей, Карл Бьюкс, Кейт Ликориш, Ричард Стефенсон, Габриэлла Пинто

    Описание

    Британский военный офицер Кэтрин Пауэлл проводит дни своей службы в составе секретной команды по управлению беспилотниками. Когда героиня видит, что в зоне поражения находится 9-летня девочка, то понимает, что её новое задание — захват террористической группы в Кении — становится ничем иным, как убийством...

    Рейтинг MPAA: R (лицам до 17 лет обязательно присутствие взрослого)
    Дата мировой премьеры: 11 сентября 2015
    Дата российской премьеры: 30 июня 2016
    Продолжительность: 01: 42: 45
    Качество видео: BDRip
    Перевод: Многоголосый закадровый, профессиональный (iTunes)
    Язык субтитров: Русский (форсированные)
    Вид субтитров: Вшитые отключаемые
    Видео: AVC/H.264, 1920x800 (2.40: 1), ~4923 Kbps
    Аудио: AC3, 6 ch, 384 Kbps
    Код:

    General
    Unique ID : 191744934443224905254048017289229965902 (0x9040BB28E71EE9619450AE304C791A4E)
    Complete name : J:СборкаВсевидящее око. - Eye.In.The.Sky.2015.1080p.BluRay.АС3.x264.[iTunes].mkv
    Format : Matroska
    Format version : Version 4/Version 2
    File size : 3.81 GiB
    Duration : 1h 42mn
    Overall bit rate : 5 307 Kbps
    Encoded date : UTC 2016-07-30 19:19:30
    Writing application : mkvmerge v7.3.0 (\'Nouages\') 32bit built on Oct 22 2014 18:44:01
    Writing library : libebml v1.3.0 + libmatroska v1.4.1
    DURATION : 01:24:19.379000000
    NUMBER_OF_FRAMES : 120
    NUMBER_OF_BYTES : 6157
    _STATISTICS_WRITING_APP : mkvmerge v7.3.0 (\'Nouages\') 32bit built on Oct 22 2014 18:44:01
    _STATISTICS_WRITING_DATE_UTC : 2016-07-30 19:19:30
    _STATISTICS_TAGS : BPS DURATION NUMBER_OF_FRAMES NUMBER_OF_BYTES
    Video #1
    ID : 1
    Format : AVC
    Format/Info : Advanced Video Codec
    Format profile :High@L4.1
    Format settings, CABAC : Yes
    Format settings, ReFrames : 5 frames
    Codec ID : V_MPEG4/ISO/AVC
    Duration : 1h 42mn
    Bit rate : 4 923 Kbps
    Width : 1 920 pixels
    Height : 800 pixels
    Display aspect ratio : 2.40:1
    Frame rate mode : Constant
    Frame rate : 23.976 fps
    Color space : YUV
    Chroma subsampling : 4:2:0
    Bit depth : 8 bits
    Scan type : Progressive
    Bits/(Pixel*Frame) : 0.134
    Stream size : 3.46 GiB (91%)
    Writing library : x264 core 148 r2638 7599210
    Encoding settings : cabac=1/ref=5/deblock=1:-1:-1/analyse=0x3:0x133/me=umh/subme=11/psy=1/psy_rd=1.00:0.15/mixed_ref=1/me_range=32/chroma_me=1/trellis=2/8x8dct=1/cqm=0/deadzone=21, 11/fast_pskip=0/chroma_qp_offset=-3/threads=12/lookahead_threads=1/sliced_threads=0/nr=0/decimate=1/interlaced=0/bluray_compat=0/constrained_intra=0/bframes=4/b_pyramid=2/b_adapt=2/b_bias=0/direct=3/weightb=1/open_gop=0/weightp=2/keyint=240/keyint_min=23/scenecut=40/intra_refresh=0/rc_lookahead=60/rc=2pass/mbtree=1/bitrate=4923/ratetol=1.0/qcomp=0.60/qpmin=0/qpmax=69/qpstep=4/cplxblur=20.0/qblur=0.5/ip_ratio=1.40/aq=1:1.00
    Default : Yes
    Forced : No
    Audio #2
    ID : 2
    Format : AC-3
    Format/Info : Audio Coding 3
    Mode extension : CM (complete main)
    Format settings, Endianness : Big
    Codec ID : A_AC3
    Duration : 1h 42mn
    Bit rate mode : Constant
    Bit rate : 384 Kbps
    Channel(s) : 6 channels
    Channel positions : Front: L C R, Side: L R, LFE
    Sampling rate : 48.0 KHz
    Bit depth : 16 bits
    Compression mode : Lossy
    Stream size : 282 MiB (7%)
    Default : Yes
    Forced : No
    Text #3
    ID : 3
    Format : UTF-8
    Codec ID : S_TEXT/UTF8
    Codec ID/Info : UTF-8 Plain Text
    Default : Yes
    Forced : No


    Скриншоты для ознакомления




    Онлайн видео Всевидящее око



    Всевидящее око/Eye in the Sky (2015) BDRip [H.264/1080p-LQ]
    загрузка...
    Рейтинг →
     (голосов: 1, оценка 3/5, голосовать можно 1 раз )

    Другие торренты по теме:

  • Всевидящее око / Eye in the Sky (2015) BDRip [H.264 / 720p] [EN]
  • Всевидящее око / Eye in the Sky (2015) BDRip [H.264 / 1080p] [EN]
  • Всевидящее око / Eye in the Sky (2015) BDRip [H.264 / 1080p] [MVO]
  • Всевидящее око / Eye in the Sky (2015) BDRip [H.264 / 1080p]
  • Всевидящее око / Eye in the Sky (2015) BDRip [H.264 / 720p]
  • Всевидящее око / Eye in the Sky (2015) BDRip [H.264 / 1080p]


    • Комментарии (0):

      Информация

      Информация

        Посетители, находящиеся в группе Гости, не могут оставлять комментарии в данной новости.

        ↓ Меню




        ↓ Опрос

        Вы добавили сайт в закладки?
        Да
        Нет


        Top 10 за месяц (Фильмы)