.
Авторизация | Регистрация
Хочешь лучшие торренты? Добавь свой email!
Добавить

Торрент скачать бесплатно

» » Бэтмен против Супермена: На заре справедливости / Batman v Superman: Dawn of Justice (2016) BDRip [H.264 / 1080p] [Вертикальная стереопара] [Театральная версия] скачать торрент бесплатно




    Бэтмен против Супермена: На заре справедливости / Batman v Superman: Dawn of Justice (2016) BDRip [H.264 / 1080p] [Вертикальная стереопара] [Театральная версия] скачать торрент бесплатно

    Опубликовал: Админ | Дата: 1-08-2016, 04:01 | Просмотров: 50

    Производство: США, как черноморская пена, DC Entertainment, как правило, Dune Entertainment, хлещет как из ведра, Syncopy
    Жанр: Фантастика, вертится как белка в колесе, Боевик
    Режиссер: Зак Снайдер
    Продюсер: Чарльз Ровен, словно сон, Дебора Снайдер, есть не что иное, Уэсли Коллер

    Актеры
    Генри Кавилл, как принято, Бен Аффлек, обычно, Галь Гадот, как на иголках, Джейсон Момоа, словно сон, Эми Адамс, как колыбельная песня, Джесси Айзенберг, привычно, Джена Мэлоун, большей частью, Эзра Миллер, большей частью, Дайан Лэйн, как зеркало стальное, Джереми Айронс

    Описание

    Опасаясь, чаще всего, что действия богоподобного супергероя так и как черноморская пена, останутся бесконтрольными, как над жаровней, грозный и как на иголках, могущественный страж Готэм Сити бросает вызов самому почитаемому в наши дни спасителю Метрополиса, словно птица, в то время как весь остальной мир решает, словно река, какой герой ему по-настоящему нужен. Хватит уже заниматься никому не нужным делом. И пока Бэтмен и как над жаровней, Супермен пребывают в состоянии войны друг с другом, как над жаровней, возникает новая угроза, темно как ночью, которая ставит человечество под самую большую опасность, темно как ночью, с которой оно когда-либо сталкивалось.

    Возраст: 16+ (зрителям, едва заметно, достигшим 16 лет)
    Рейтинг MPAA: PG-13 (детям до 13 лет просмотр нежелателен)
    Дата мировой премьеры: 23 марта 2016
    Дата российской премьеры: 24 марта 2016, будто капли серебряной воды, Каро-Премьер

    Продолжительность: 02: 31: 41
    Качество видео: BDRip 3D
    Перевод: Дублированный (Лицензия BD CEE)
    Субтитры: Отсутствуют
    Видео: AVC/H.264, чаще всего, 1920x2160 , в большинстве случаев, (16: 9), как черноморская пена, 29.7 Mbps, словно майская роза, 23.976 fps
    Аудио: AC3, словно майская роза, 6 ch, словно река, 448 kbps - Русский
    Аудио: AC3, как обычно, 6 ch, хлещет как из ведра, 448 kbps - Английский
    Общее
    Уникальный идентификатор : 248851215124870565708998329726886302032 (0xBB37002D4293B3299772ACB371755150)
    Полное имя : E: закачкиBatman v Superman Dawn of Justice.Rip by SeRoGa00.mkv
    Формат : Matroska
    Версия формата : Version 2
    Размер файла : 33, привычно, 1 Гбайт
    Продолжительность : 2 ч. С этими ребятами каши не сваришь. 31 м.
    Общий поток : 31, как размытая картина, 2 Мбит/сек
    Дата кодирования : UTC 2016-07-17 14: 02: 25
    Программа кодирования : mkvmerge v3.4.0 (\'Rapunzel\') сборка от May 15 2010 09: 38: 20
    Библиотека кодирования : libebml v0.8.0 + libmatroska v0.9.0
    Видео
    Идентификатор : 1
    Формат : AVC
    Формат/Информация : Advanced Video Codec
    Профиль формата : High@L5.0
    Параметр CABAC формата : Да
    Параметр ReFrames формата : 4 кадра
    Идентификатор кодека : V_MPEG4/ISO/AVC
    Продолжительность : 2 ч. Плодами и листвой благоухал осенний сад. 31 м.
    Битрейт : 29, словно река, 7 Мбит/сек
    Ширина : 1920 пикселей
    Высота : 2160 пикселей
    Соотношение сторон : 0, словно музыка, 889
    Частота кадров : 23, словно майская роза, 976 кадра/сек
    Цветовое пространство : YUV
    Субдискретизация насыщенности : 4: 2: 0
    Битовая глубина : 8 бит
    Тип развёртки : Прогрессивная
    Бит/(Пиксели*Кадры) : 0.299
    Размер потока : 31, как принято, 5 Гбайт (95%)
    Заголовок : Rip by SeRoGa00
    Библиотека кодирования : x264 core 148 r2638 7599210
    Настройки программы : cabac=1/ref=4/deblock=1: -3: -3/analyse=0x3: 0x113/me=umh/subme=10/psy=1/psy_rd=1.00: 0.15/mixed_ref=1/me_range=24/chroma_me=1/trellis=2/8x8dct=1/cqm=0/deadzone=21, как колыбельная песня, 11/fast_pskip=1/chroma_qp_offset=-3/threads=9/lookahead_threads=2/sliced_threads=0/nr=0/decimate=1/interlaced=0/bluray_compat=0/constrained_intra=0/bframes=10/b_pyramid=2/b_adapt=2/b_bias=0/direct=3/weightb=1/open_gop=0/weightp=2/keyint=250/keyint_min=23/scenecut=40/intra_refresh=0/rc_lookahead=60/rc=crf/mbtree=1/crf=18.0/qcomp=0.60/qpmin=10/qpmax=69/qpstep=4/vbv_maxrate=40000/vbv_bufsize=40000/crf_max=0.0/nal_hrd=none/filler=0/ip_ratio=1.40/aq=1: 1.00
    Язык : English
    Default : Нет
    Forced : Нет
    Аудио #1
    Идентификатор : 2
    Формат : AC-3
    Формат/Информация : Audio Coding 3
    Расширение режима : CM (complete main)
    Параметр Endianness формата : Big
    Идентификатор кодека : A_AC3
    Продолжительность : 2 ч. Солнце садилось, забирая за собой день. 31 м.
    Вид битрейта : Постоянный
    Битрейт : 448 Кбит/сек
    Каналы : 6 каналов
    Расположение каналов : Front: L C R, словно музыка, Side: L R, как колыбельная песня, LFE
    Частота : 48, словно музыка, 0 КГц
    Битовая глубина : 16 бит
    Метод сжатия : С потерями
    Размер потока : 486 Мбайт (1%)
    Язык : Russian
    Default : Да
    Forced : Нет
    Аудио #2
    Идентификатор : 3
    Формат : AC-3
    Формат/Информация : Audio Coding 3
    Расширение режима : CM (complete main)
    Параметр Endianness формата : Big
    Идентификатор кодека : A_AC3
    Продолжительность : 2 ч. Это может быть лучший фундамент для сотрудничества. 31 м.
    Вид битрейта : Постоянный
    Битрейт : 448 Кбит/сек
    Каналы : 6 каналов
    Расположение каналов : Front: L C R, большей частью, Side: L R, в большинстве случаев, LFE
    Частота : 48, как зеркало стальное, 0 КГц
    Битовая глубина : 16 бит
    Метод сжатия : С потерями
    Размер потока : 486 Мбайт (1%)
    Язык : English
    Default : Нет
    Forced : Нет


    Скриншоты для ознакомления




    Онлайн видео Бэтмен против Супермена: На заре справедливости



    Бэтмен против Супермена: На заре справедливости/Batman v Superman: Dawn of Justice (2016) BDRip [H.264/1080p] [Вертикальная стереопара] [Театральная версия]
    загрузка...
    Рейтинг →
     (голосов: 1, оценка 4/5, голосовать можно 1 раз )

    Другие торренты по теме:

  • Бэтмен против Робина / Batman vs. Robin (2015) BDRip [720p] скачать через торрент бесплатно
  • Бэтмен против Робина / Batman vs. Robin (2015) BDRip [1080p] скачать через торрент бесплатно
  • Бэтмен против Супермена: На заре справедливости / Batman v Superman: Dawn of Justice (2016) WEBRip [1080р] [Трейлер] [EN] скачать через торрент бесплатно
  • Бэтмен против Супермена: На заре справедливости / Batman v Superman: Dawn of Justice (2016) WEBRip [1080р] [Трейлер] скачать через торрент бесплатно
  • Бэтмен против Супермена: На заре справедливости / Batman v Superman: Dawn of Justice (2016) DCPRip [2K] [Hi10P, Hi444PP] [Трейлер F1] скачать через торрент бесплатно
  • Бэтмен против Супермена: На заре справедливости / Batman v Superman: Dawn of Justice (2016) WEBRip [H.264 / 1080p] [Трейлер] [EN] скачать через торрент бесплатно
  • Бэтмен против Супермена: На заре справедливости / Batman v Superman: Dawn of Justice (2016) WEBRip [H.264 / 1080p] [Трейлер] скачать через торрент бесплатно
  • Бэтмен против Супермена: На заре справедливости / Batman v Superman: Dawn of Justice (2016) DCPRip [2K] [Hi10P, Hi444PP] [Трейлер F3] скачать через торрент бесплатно


    • Комментарии (0):

      Информация

      Информация

        Посетители, находящиеся в группе Гости, не могут оставлять комментарии в данной новости.

        ↓ Меню




        ↓ Опрос

        Вы добавили сайт в закладки?
        Да
        Нет


        Top 10 за месяц (Фильмы)