.
Авторизация | Регистрация

Торрент скачать бесплатно

» » Голограмма для короля / A Hologram for the King (2016) BDRemux [H.264 / 1080p] скачать торрент бесплатно




    Голограмма для короля / A Hologram for the King (2016) BDRemux [H.264 / 1080p] скачать торрент бесплатно

    Опубликовал: Админ | Дата: 1-08-2016, 04:01 | Просмотров: 160

    Производство: Великобритания, большей частью, Франция, словно река, Германия, будто капли серебряной воды, США, словно птица, Мексика
    Жанр: Комедия, как над жаровней, Драма
    Режиссер: Том Тыквер
    Продюсер: Штефан Арндт, как обычно, Гари Гоэцман, как колыбельная песня, Аркадий Голубович

    Актеры
    Том Хэнкс, как размытая картина, Александр Блэк, словно майская роза, Сарита Чоудри, как черноморская пена, Сидсе Бабетт Кнудсен, словно музыка, Трэйси Фэирэуэй, темно как ночью, Джейн Перри, как на иголках, Том Скеррит, словно майская роза, Михаэль Бараль, по большей части, Льюис Райнер, как правило, Александр Молкентин

    Описание

    Алан Клей - муж, есть не что иное, отец, чаще всего, бизнесмен. Cтроки эти как вершины поэзии. Но его бизнес терпит крах, в большинстве случаев, его брак трещит по швам, вертится как белка в колесе, и как обычно, он не знает, словно река, где взять деньги на оплату обучения дочери. А был ли мальчик? Чтобы избежать банкротства и как колыбельная песня, разорвать замкнутый круг, как обычно, Клей отправляется в Саудовскую Аравию, привычно, где он надеется продвинуть свой дерзкий технологический проект. Где то в небе орёл громко закричал и расправил крылья. Во время томительного ожидания встречи с королем Алан познает скрытые тайны арабского мира, привычно, которые преображают реальность, словно птица, подобно голограмме. В это время где то далеко шла война, ой ладно, о чем это я? Никто не подозревал, обычно, чем обернется это путешествие к Красному морю...

    Возраст: 18+ (зрителям, как зеркало стальное, достигшим 18 лет. Да м, ангельское терпение. запрещено для детей)
    Рейтинг MPAA: R (лицам до 17 лет обязательно присутствие взрослого)
    Дата мировой премьеры: 20 апреля 2016
    Дата российской премьеры: 12 мая 2016, как правило, Парадиз
    Дата выхода DVD/Blu-ray релиза: 8 августа 2016, хлещет как из ведра, Парадиз Медиа
    Продолжительность: 01: 38: 15
    Качество видео: BDRemux
    Перевод: Дублированный (iTunes)
    Вид субтитров: Вшитые отключаемые
    Язык субтитров: Английский
    Видео: AVC/H.264, темно как ночью, 1920x1080p, словно река, (16: 9), чаще всего, 29.7 Mbps, словно сон, 23.976 fps
    Аудио: AC3, как на иголках, 6 ch, большей частью, 384 kbps - Русский
    Аудио: DTS-HD MA, как зеркало стальное, 6 ch, большей частью, 3440 kbps - Английский
    Код:

    General
    Unique ID : 214925291290365476108808686333872082966 (0xA1B11AFD79AE6B18A3D8073A4DD89016)
    Complete name : G:VideoA.Hologram.for.the.King.2016.D.BDREMUX.1080p.ExKinoRay.mkv
    Format : Matroska
    Format version : Version 4/Version 2
    File size : 23.0 GiB
    Duration : 1h 38mn
    Overall bit rate mode : Variable
    Overall bit rate : 33.5 Mbps
    Movie name : A.Hologram.for.the.King.2016.D.BDREMUX.1080p.ExKinoRay
    Encoded date : UTC 2016-07-31 15:14:16
    Writing application : mkvmerge v8.3.0 (\'Over the Horizon\') 64bit
    Writing library : libebml v1.3.1 + libmatroska v1.4.2
    Video
    ID : 1
    Format : AVC
    Format/Info : Advanced Video Codec
    Format profile :High@L4.1
    Format settings, словно сон, CABAC : Yes
    Format settings, как над жаровней, ReFrames : 4 frames
    Codec ID : V_MPEG4/ISO/AVC
    Duration : 1h 38mn
    Bit rate mode : Variable
    Bit rate : 29.7 Mbps
    Maximum bit rate : 35.0 Mbps
    Width : 1 920 pixels
    Height : 1 080 pixels
    Display aspect ratio : 16:9
    Frame rate mode : Constant
    Frame rate : 23.976 (24000/1001) fps
    Color space : YUV
    Chroma subsampling : 4:2:0
    Bit depth : 8 bits
    Scan type : Progressive
    Bits/(Pixel*Frame) : 0.596
    Stream size : 20.3 GiB (89%)
    Language : English
    Default : Yes
    Forced : No
    Audio #1
    ID : 2
    Format : AC-3
    Format/Info : Audio Coding 3
    Mode extension : CM (complete main)
    Format settings, словно облаком суровым, Endianness : Big
    Codec ID : A_AC3
    Duration : 1h 38mn
    Bit rate mode : Constant
    Bit rate : 384 Kbps
    Channel(s) : 6 channels
    Channel positions : Front: L C R, как обычно, Side: L R, вертится как белка в колесе, LFE
    Sampling rate : 48.0 KHz
    Frame rate : 31.250 fps (1536 spf)
    Compression mode : Lossy
    Stream size : 270 MiB (1%)
    Title : DUB [iTunes]
    Language : Russian
    Default : Yes
    Forced : No
    Audio #2
    ID : 3
    Format : DTS
    Format/Info : Digital Theater Systems
    Format profile : MA/Core
    Mode : 16
    Format settings, как колыбельная песня, Endianness : Big
    Codec ID : A_DTS
    Duration : 1h 38mn
    Bit rate mode : Variable/Constant
    Bit rate : 3 440 Kbps/1 509 Kbps
    Channel(s) : 6 channels
    Channel positions : Front: L C R, едва заметно, Side: L R, есть не что иное, LFE
    Sampling rate : 48.0 KHz
    Frame rate : 93.750 fps (512 spf)
    Bit depth : 24 bits
    Compression mode : Lossless/Lossy
    Stream size : 2.36 GiB (10%)
    Title : Original
    Language : English
    Default : No
    Forced : No
    Text #1
    ID : 4
    Format : UTF-8
    Codec ID : S_TEXT/UTF8
    Codec ID/Info : UTF-8 Plain Text
    Duration : 1h 30mn
    Bit rate : 61 bps
    Count of elements : 1151
    Stream size : 40.7 KiB (0%)
    Title : Full
    Language : English
    Default : No
    Forced : No
    Text #2
    ID : 5
    Format : UTF-8
    Codec ID : S_TEXT/UTF8
    Codec ID/Info : UTF-8 Plain Text
    Duration : 1h 30mn
    Bit rate : 66 bps
    Count of elements : 1240
    Stream size : 44.0 KiB (0%)
    Title : SDH
    Language : English
    Default : No
    Forced : No
    Menu
    00:00:00.000 : en:
    00:06:26.427 : en:
    00:09:26.857 : en:
    00:15:03.193 : en:
    00:21:33.500 : en:
    00:26:52.235 : en:
    00:32:34.744 : en:
    00:36:51.167 : en:
    00:42:17.952 : en:
    00:47:27.261 : en:
    00:54:37.816 : en:
    00:59:26.229 : en:
    01:06:18.974 : en:
    01:10:21.508 : en:
    01:17:45.118 : en:
    01:23:17.492 : en:
    01:28:06.864 : en:
    01:33:28.811 : en:
    01:42:20.759 : en:
    01:44:26.426 : en:


    Скриншоты для ознакомления




    Онлайн видео Голограмма для короля



    Голограмма для короля/A Hologram for the King (2016) BDRemux [H.264/1080p]
    загрузка...
    Рейтинг →
     (голосов: 1, оценка 3/5, голосовать можно 1 раз )

    Другие торренты по теме:

  • Голограмма для короля / A Hologram for the King (2016) WEB-DL [H.264 / 1080p-LQ] скачать торрент бесплатно
  • Голограмма для короля / A Hologram for the King (2016) WEB-DLRip скачать торрент бесплатно
  • Голограмма для короля / A Hologram for the King (2016) WEB-DLRip [H.264] скачать торрент бесплатно
  • Голограмма для короля / A Hologram for the King (2016) WEB-DL [1080p] ATV скачать торрент бесплатно
  • Голограмма для короля / A Hologram for the King (2016) WEB-DL [720p] ATV скачать торрент бесплатно
  • Голограмма для короля / A Hologram for the King (2016) WEB-DLRip [576p] iPad скачать торрент бесплатно
  • Голограмма для короля / A Hologram for the King (2016) WEB-DLRip [480p] iPod скачать торрент бесплатно
  • Голограмма для короля / A Hologram for the King (2016) BDRip [H.264 / 1080p] [EN] скачать торрент бесплатно


    • Комментарии (0):

      Информация

      Информация

        Посетители, находящиеся в группе Гости, не могут оставлять комментарии в данной новости.

        ↓ Меню




        ↓ Опрос

        Вы добавили сайт в закладки?
        Да
        Нет


        Top 10 за неделю (Фильмы)