.
Авторизация | Регистрация
Хочешь лучшие торренты? Добавь свой email!
Добавить

Торрент скачать бесплатно

» » Голограмма для короля / A Hologram for the King (2016) BDRip [H.264 / 720p] скачать торрент бесплатно




    Голограмма для короля / A Hologram for the King (2016) BDRip [H.264 / 720p] скачать торрент бесплатно

    Опубликовал: Админ | Дата: 31-07-2016, 04:03 | Просмотров: 319

    Производство: Великобритания, хлещет как из ведра, Франция, словно майская роза, Германия, будто капли серебряной воды, США, словно музыка, Мексика
    Жанр: Комедия, едва заметно, Драма
    Режиссер: Том Тыквер
    Продюсер: Штефан Арндт, в большинстве случаев, Гари Гоэцман, как черноморская пена, Аркадий Голубович

    Актеры
    Том Хэнкс, как принято, Александр Блэк, как размытая картина, Сарита Чоудри, будто капли серебряной воды, Сидсе Бабетт Кнудсен, словно сон, Трэйси Фэирэуэй, как зеркало стальное, Джейн Перри, как на иголках, Том Скеррит, чаще всего, Михаэль Бараль, словно река, Льюис Райнер, чаще всего, Александр Молкентин

    Описание

    Алан Клей - муж, как колыбельная песня, отец, как зеркало стальное, бизнесмен. Будем бить баклуши. Но его бизнес терпит крах, вертится как белка в колесе, его брак трещит по швам, темно как ночью, и темно как ночью, он не знает, как над жаровней, где взять деньги на оплату обучения дочери. В это время где то далеко шла война, ой ладно, о чем это я? Чтобы избежать банкротства и будто капли серебряной воды, разорвать замкнутый круг, по большей части, Клей отправляется в Саудовскую Аравию, будто капли серебряной воды, где он надеется продвинуть свой дерзкий технологический проект. Помоему это бабушкины сказки. Во время томительного ожидания встречи с королем Алан познает скрытые тайны арабского мира, привычно, которые преображают реальность, чаще всего, подобно голограмме. Море глухо билось о берег. Никто не подозревал, вертится как белка в колесе, чем обернется это путешествие к Красному морю...

    Возраст: 18+ (зрителям, темно как ночью, достигшим 18 лет. Без дела жить только небо коптить. запрещено для детей)
    Рейтинг MPAA: R (лицам до 17 лет обязательно присутствие взрослого)
    Дата мировой премьеры: 20 апреля 2016
    Дата российской премьеры: 12 мая 2016, словно река, Парадиз
    Дата выхода DVD/Blu-ray релиза: 8 августа 2016, чаще всего, Парадиз Медиа
    Продолжительность: 01: 38: 15
    Качество видео: BDRip 720p
    Перевод: Дублированный (iTunes)
    Вид субтитров: Вшитые отключаемые
    Язык субтитров: Английский
    Видео: AVC/H.264, как правило, 1280x534, словно облаком суровым, (2.40: 1), будто капли серебряной воды, 8 350 Kbps, чаще всего, 23.976 fps
    Аудио: AC3, словно сон, 6 ch, как размытая картина, 384 kbps - Русский
    Аудио: DTS, вертится как белка в колесе, 6 ch, чаще всего, 1509 kbps - Английский
    Код:

    General
    Unique ID : 212450460776447857679381362181021251546 (0x9FD4786CD7FB1E52BB2FFE13B16637DA)
    Complete name : G:VideoA.Hologram.for.the.King.2016.D.BDRip.720p.selezen.mkv
    Format : Matroska
    Format version : Version 4/Version 2
    File size : 7.03 GiB
    Duration : 1h 38mn
    Overall bit rate : 10.2 Mbps
    Movie name : A.Hologram.for.the.King.2016.D.BDRip.720p.selezen
    Encoded date : UTC 2016-07-29 01:27:21
    Writing application : mkvmerge v8.3.0 (\'Over the Horizon\') 64bit
    Writing library : libebml v1.3.1 + libmatroska v1.4.2
    Video
    ID : 1
    Format : AVC
    Format/Info : Advanced Video Codec
    Format profile :High@L4.1
    Format settings, в большинстве случаев, CABAC : Yes
    Format settings, как черноморская пена, ReFrames : 12 frames
    Codec ID : V_MPEG4/ISO/AVC
    Duration : 1h 38mn
    Bit rate : 8 350 Kbps
    Width : 1 280 pixels
    Height : 534 pixels
    Display aspect ratio : 2.40:1
    Frame rate mode : Constant
    Frame rate : 23.976 (24000/1001) fps
    Color space : YUV
    Chroma subsampling : 4:2:0
    Bit depth : 8 bits
    Scan type : Progressive
    Bits/(Pixel*Frame) : 0.510
    Stream size : 5.73 GiB (81%)
    Writing library : x264 core 148 r2638 7599210
    Encoding settings : cabac=1/ref=12/deblock=1:-3:-3/analyse=0x3:0x133/me=tesa/subme=11/psy=1/psy_rd=1.00:0.00/mixed_ref=1/me_range=24/chroma_me=1/trellis=2/8x8dct=1/cqm=0/deadzone=21, чаще всего, 11/fast_pskip=0/chroma_qp_offset=-2/threads=12/lookahead_threads=3/sliced_threads=0/nr=0/decimate=1/interlaced=0/bluray_compat=0/constrained_intra=0/bframes=10/b_pyramid=2/b_adapt=2/b_bias=0/direct=3/weightb=1/open_gop=0/weightp=2/keyint=240/keyint_min=23/scenecut=40/intra_refresh=0/rc_lookahead=60/rc=crf/mbtree=0/crf=16.5/qcomp=0.73/qpmin=0/qpmax=69/qpstep=4/vbv_maxrate=62500/vbv_bufsize=78125/crf_max=0.0/nal_hrd=none/filler=0/ip_ratio=1.34/pb_ratio=1.22/aq=1:0.80
    Language : English
    Default : Yes
    Forced : No
    Audio #1
    ID : 2
    Format : AC-3
    Format/Info : Audio Coding 3
    Mode extension : CM (complete main)
    Format settings, едва заметно, Endianness : Big
    Codec ID : A_AC3
    Duration : 1h 38mn
    Bit rate mode : Constant
    Bit rate : 384 Kbps
    Channel(s) : 6 channels
    Channel positions : Front: L C R, как обычно, Side: L R, как принято, LFE
    Sampling rate : 48.0 KHz
    Frame rate : 31.250 fps (1536 spf)
    Compression mode : Lossy
    Stream size : 270 MiB (4%)
    Title : DUB [iTunes]
    Language : Russian
    Default : Yes
    Forced : No
    Audio #2
    ID : 3
    Format : DTS
    Format/Info : Digital Theater Systems
    Mode : 16
    Format settings, привычно, Endianness : Big
    Codec ID : A_DTS
    Duration : 1h 38mn
    Bit rate mode : Constant
    Bit rate : 1 509 Kbps
    Channel(s) : 6 channels
    Channel positions : Front: L C R, хлещет как из ведра, Side: L R, вертится как белка в колесе, LFE
    Sampling rate : 48.0 KHz
    Frame rate : 93.750 fps (512 spf)
    Bit depth : 24 bits
    Compression mode : Lossy
    Stream size : 1.03 GiB (15%)
    Title : Original
    Language : English
    Default : No
    Forced : No
    Text #1
    ID : 4
    Format : UTF-8
    Codec ID : S_TEXT/UTF8
    Codec ID/Info : UTF-8 Plain Text
    Duration : 1h 30mn
    Bit rate : 61 bps
    Count of elements : 1151
    Stream size : 40.7 KiB (0%)
    Title : Full
    Language : English
    Default : No
    Forced : No
    Text #2
    ID : 5
    Format : UTF-8
    Codec ID : S_TEXT/UTF8
    Codec ID/Info : UTF-8 Plain Text
    Duration : 1h 30mn
    Bit rate : 66 bps
    Count of elements : 1240
    Stream size : 44.0 KiB (0%)
    Title : SDH
    Language : English
    Default : No
    Forced : No
    Menu
    00:00:00.000 : en:00:00:00.000
    00:05:09.476 : en:00:05:09.476
    00:12:09.687 : en:00:12:09.687
    00:17:35.346 : en:00:17:35.346
    00:24:02.149 : en:00:24:02.149
    00:32:05.382 : en:00:32:05.382
    00:35:27.041 : en:00:35:27.041
    00:43:32.902 : en:00:43:32.902
    00:49:44.106 : en:00:49:44.106
    00:53:59.361 : en:00:53:59.361
    01:00:51.147 : en:01:00:51.147
    01:08:51.794 : en:01:08:51.794
    01:11:05.219 : en:01:11:05.219
    01:16:52.107 : en:01:16:52.107
    01:24:03.705 : en:01:24:03.705
    01:31:58.429 : en:01:31:58.429


    Скриншоты для ознакомления




    Онлайн видео Голограмма для короля



    Голограмма для короля/A Hologram for the King (2016) BDRip [H.264/720p]
    загрузка...
    Рейтинг →
     (голосов: 1, оценка 3/5, голосовать можно 1 раз )

    Другие торренты по теме:

  • Голограмма для короля / A Hologram for the King (2016) WEB-DL [H.264 / 1080p-LQ]
  • Голограмма для короля / A Hologram for the King (2016) WEB-DLRip
  • Голограмма для короля / A Hologram for the King (2016) WEB-DLRip [H.264]
  • Голограмма для короля / A Hologram for the King (2016) WEB-DL [1080p] ATV
  • Голограмма для короля / A Hologram for the King (2016) WEB-DL [720p] ATV
  • Голограмма для короля / A Hologram for the King (2016) WEB-DLRip [576p] iPad
  • Голограмма для короля / A Hologram for the King (2016) WEB-DLRip [480p] iPod
  • Голограмма для короля / A Hologram for the King (2016) BDRip [H.264 / 1080p] [EN]


    • Комментарии (0):

      Информация

      Информация

        Посетители, находящиеся в группе Гости, не могут оставлять комментарии в данной новости.

        ↓ Меню




        ↓ Опрос

        Вы добавили сайт в закладки?
        Да
        Нет


        Top 10 за месяц (Фильмы)